Skeeter Rabbit - The Cure [Танцы, DVDRip, ENG] (Видеоурок)


Статистика раздачи [Обновить пиров]
Размер:  121 MB   |    Зарегистрирован:  10 месяцев 18 дней   |    Скачан:  0 раз

Полного источника не было: Никогда

 
   
 
 
 

[Цитировать]

Skeeter Rabbit - The Cure
Страна: США
Тематика: Танцы
Тип раздаваемого материала: Видеоурок
Продолжительность: 00:47:35
Язык: Английский
Перевод: Отсутствует
Описание: Oldschool popping от Skeeter Rabbit. Очень хорошее видео, где он дает связки на базу.
Доп. информация: Постер в конце видео.
Качество : DVDRip
Формат: WMV
Видео кодек: WMVx
Аудио кодек: WMA
Видео: Windows Media Video 7, 320x240 (1.33:1), ~789 kbps avg, 0.43 bit/pixel, 23.976 fps
Аудио: Windows Media Audio, ~32.00 kbps avg, 32 kHz, 2 ch

Скриншоты

MediaInfo
General
Format : Windows Media
File size : 121 MiB
Duration : 47mn 35s
Overall bit rate mode : Constant
Overall bit rate : 356 Kbps
Maximum Overall bit rate : 365 Kbps
Performer : tre
Encoded date : UTC 2003-07-11 17:42:30.265
Video
ID : 2
Format : WMV1
Codec ID : WMV1
Codec ID/Info : Windows Media Video 7
Description of the codec : Windows Media Video V7
Duration : 47mn 34s
Bit rate mode : Constant
Bit rate : 314 Kbps
Width : 320 pixels
Height : 240 pixels
Display aspect ratio : 4:3
Frame rate : 29.970 fps
Bit depth : 8 bits
Bits/(Pixel*Frame) : 0.136
Stream size : 107 MiB (88%)
Language : English (US)
Audio
ID : 1
Format : WMA
Format version : Version 2
Codec ID : 161
Codec ID/Info : Windows Media Audio
Description of the codec : Windows Media Audio 9 - 32 kbps, 32 kHz, stereo (A/V) 1-pass CBR
Duration : 47mn 35s
Bit rate mode : Constant
Bit rate : 32.0 Kbps
Channel(s) : 2 channels
Sampling rate : 32.0 KHz
Bit depth : 16 bits
Stream size : 10.9 MiB (9%)
Language : English (US)
[teatrix.ru].t13546.torrent 
Торрент: Зарегистрирован [ 2016-01-22 01:35 ] · 1E823E4AEA893ACF5D5854A9F37E2573AC81F7DD

Скачать .torrent

Скачать

19 KB

Статус: проверено
Скачан: 0 раз
Размер: 121 MB
terms.php



Быстрый ответ

Имя:

      
Для отправки сообщений необходимо включить JavaScript
Показать сообщения:    

Текущее время: 09-Дек 20:31

Часовой пояс: UTC + 3


Вы можете начинать темы
Вы можете отвечать на сообщения
Вы не можете редактировать свои сообщения
Вы не можете удалять свои сообщения
Вы не можете голосовать в опросах
Вы не можете прикреплять файлы к сообщениям
Вы можете скачивать файлы