Тектоник: Персональные Секреты по Electro Dance / Electro Secrets [2010, Танцы стиля Электро Дэнс (тектоник), DVD5, RUS] (Видеоурок)


Статистика раздачи [Обновить пиров]
Размер:  3.5 GB   |    Зарегистрирован:  10 месяцев 13 дней   |    Скачан:  0 раз

Полного источника не было: Никогда

Личеров:  9  [  0 KB/s  ]   Подробная статистика пиров
 
   
 
 
 

[Цитировать]

Тектоник: Персональные Секреты по Electro Dance / Electro Secrets
Страна: Россия
Тематика: Танцы стиля Электро Дэнс (тектоник)
Тип раздаваемого материала: Видеоурок
Продолжительность: 01:16:31
Год выпуска: 2010
Язык: Русский
Перевод: Не требуется
Описание: "Смысл диска научить вас чему-то новому или повысить уровень танца как минимум в два раза. А так же обеспечить Вас большим количеством фундаментальных знаний по теоретической части Электро дэнса (Тектоник)."
Эта электро энциклопедия, не просто какие-то теоретические выкладки, а именно материал, основанный на собственном опыте и опыте лучших танцоров России, оформленный в самом усваиваемом на сегодняшний день формате - видео уроков.
Доп. информация: Это авторская раздача коллекции! На данный момент к дискам уже выпущены обновления. Так как стиль Электро Дэнс постоянно совершенствуется, появляются новые движения, фишки, обыгрыши...
Все обновление возможно появиться на торренте.
А пока часть инфо можно взять на моей странице вконтакте: http://vkontakte.ru/shaxteck
Тренируйтесь и повышайте уровень ЭЛЕКТРО в России!
p.s.
Вся жизнь Электро Дэнсера - это 5,6,7,8...и еще раз 5,6,7,8... (Павел Shax Коваленко)
Качество : DVD5
Формат: DVD video
Видео кодек: MPEG2
Аудио кодек: MPEG Audio
Видео: PAL 4:3, 720x576, 25.00 fps, 5868 Kbps
Аудио: 48000Hz, stereo, 384 Kbps

Отчет MediaInfo

General
Complete name : F:\Video_DVD\VIDEO_TS\VTS_01_1.VOB
Format : MPEG-PS
File size : 1 024 MiB
Duration : 21mn 59s
Overall bit rate : 6 510 Kbps
Video
ID : 224 (0xE0)
Format : MPEG Video
Format version : Version 2
Format profile : Main@Main
Format settings, BVOP : Yes
Format settings, Matrix : Default
Duration : 21mn 59s
Bit rate mode : Constant
Bit rate : 5 868 Kbps
Nominal bit rate : 6 000 Kbps
Width : 720 pixels
Height : 576 pixels
Display aspect ratio : 4:3
Frame rate : 25.000 fps
Standard : PAL
Resolution : 8 bits
Colorimetry : 4:2:0
Scan type : Progressive
Bits/(Pixel*Frame) : 0.566
Stream size : 923 MiB (90%)
Audio
ID : 192 (0xC0)
Format : MPEG Audio
Format version : Version 1
Format profile : Layer 2
Duration : 21mn 58s
Bit rate mode : Constant
Bit rate : 384 Kbps
Channel(s) : 2 channels
Sampling rate : 48.0 KHz
Stream size : 60.4 MiB (6%)

Скриншоты

[teatrix.ru].t13547.torrent 
Торрент: Зарегистрирован [ 2016-01-22 01:35 ] · 18964BB8223502EF86CF0284EFEB459173946754

Скачать .torrent

Скачать

18 KB

Статус: проверено
Скачан: 0 раз
Размер: 3.5 GB
terms.php



Быстрый ответ

Имя:

      
Для отправки сообщений необходимо включить JavaScript
Показать сообщения:    

Текущее время: 04-Дек 13:11

Часовой пояс: UTC + 3


Вы можете начинать темы
Вы можете отвечать на сообщения
Вы не можете редактировать свои сообщения
Вы не можете удалять свои сообщения
Вы не можете голосовать в опросах
Вы не можете прикреплять файлы к сообщениям
Вы можете скачивать файлы