Парная йога для здоровья и личного счастья. Начальный уровень [2009 г., Парная Йога, DVD5]


Статистика раздачи [Обновить пиров]
Размер:  2.7 GB   |    Зарегистрирован:  10 месяцев 13 дней   |    Скачан:  0 раз

Полного источника не было: Никогда

 
   
 
 
 

[Цитировать]

Парная йога для здоровья и личного счастья. Начальный уровень
Год выпуска: 2009
Страна: Россия
Жанр: Парная Йога
Продолжительность: 60 мин.
Описание: Эти простые, но очень эффективные парные упражнения, основанные на древнейших традициях тантра-йоги, подходят для людей с любым уровнем физической подготовки. В этом комплексе делается акцент на тонкую сонастройку партнеров, умение чувствовать и понимать друг друга без слов, единение на глубинном уровне.
В состоянии расслабления и релаксации, на которое настраивает ведущая, асаны плавно перетекают одна в другую. При этом энергия партнеров активизируется, возрастает их чувствительность, и возникают новые неизведанные ранее потрясающие ощущения перетекания потоков энергии в теле, многократно улучшается качество интимных отношений.
Происходят проработка глубинных слоев подсознания и их очищение, выход блоков и психотравм, трансформация негативной задавленной энергии в позитивную, открываются энергетические каналы, связывающие нас с друг другом и с живительными силами природы. Идет быстрое оздоровление тела и гармонизация всех уровней жизни. Отношения с партнером и другими людьми выходят на новый уровень любви и взаимопонимания.
Качество: DVD5
Формат: DVD Video
Видео кодек: MPEG2
Аудио кодек: AC3
Видео: 720х576, PAL 16/9, MPEG2 VBR, 25.000 fps
Аудио: AC-3, 192 Kbps, 2 channels, 48.0 KHz

DVDInfo

Title:
Size: 2.70 Gb ( 2 828 508 KBytes ) - DVD-5
Enabled regions: 1, 2, 3, 4, 5, 6, 7, 8
VTS_01 :
Play Length: 00:00:10
Video: PAL 16:9 (720x576) VBR, Auto Letterboxed
Audio:
Not specified (Dolby AC3, 2 ch)
VTS_02 :
Play Length: 00:59:45
Video: PAL 16:9 (720x576) VBR, Auto Letterboxed
Audio:
English (Dolby AC3, 2 ch)

MediaInfo

General
Complete name : G:\Видео\Фильмы\Спорт и здоровье\Йога\Парная йога для здоровья и личного счастья. Начальный уровень\VIDEO_TS\VTS_02_1.VOB
Format : MPEG-PS
File size : 1 024 MiB
Duration : 22mn 43s
Overall bit rate : 6 300 Kbps
Video
ID : 224 (0xE0)
Format : MPEG Video
Format version : Version 2
Format profile : Main@Main
Format settings, Matrix : Default
Duration : 22mn 43s
Bit rate mode : Variable
Bit rate : 5 858 Kbps
Nominal bit rate : 8 000 Kbps
Width : 720 pixels
Height : 576 pixels
Display aspect ratio : 16/9
Frame rate : 25.000 fps
Standard : PAL
Colorimetry : 4:2:0
Scan type : Interlaced
Scan order : Top Field First
Bits/(Pixel*Frame) : 0.565
Stream size : 952 MiB (93%)
Audio
ID : 128 (0x80)
Format : AC-3
Format/Info : Audio Coding 3
Duration : 22mn 43s
Bit rate mode : Constant
Bit rate : 192 Kbps
Channel(s) : 2 channels
Channel positions : L R
Sampling rate : 48.0 KHz
Stream size : 31.2 MiB (3%)
Menu
Format : DVD-Video

Скриншоты

Обложка DVD(есть в раздаче)

[teatrix.ru].t13653.torrent 
Торрент: Зарегистрирован [ 2016-01-22 06:05 ] · 6A3004D5BA3049DD2A090724AF84D74EBCA0C6C9

Скачать .torrent

Скачать

15 KB

Статус: проверено
Скачан: 0 раз
Размер: 2.7 GB
terms.php



Быстрый ответ

Имя:

      
Для отправки сообщений необходимо включить JavaScript
Показать сообщения:    

Текущее время: 04-Дек 11:15

Часовой пояс: UTC + 3


Вы можете начинать темы
Вы можете отвечать на сообщения
Вы не можете редактировать свои сообщения
Вы не можете удалять свои сообщения
Вы не можете голосовать в опросах
Вы не можете прикреплять файлы к сообщениям
Вы можете скачивать файлы