Tonique Fitness - Tonique Addicted to Movement [2015, H.264, DVDRip, ENG] (Видеоурок)


Статистика раздачи [Обновить пиров]
Размер:  1.66 GB   |    Зарегистрирован:  10 месяцев 19 дней   |    Скачан:  0 раз

Полного источника не было: Никогда

 
   
 
 
 

[Цитировать]

Tonique Addicted to Movement
Год выпуска: 2015
Производитель: Tonique Fitness
Сайт производителя: www.amazon.com/Tonique-Addicted-To-Movement/dp/B00HWFK3SK#
Автор: Sylwia Wiesenberg
Продолжительность: 2h 24m
Тип раздаваемого материала: Видеоурок
Язык: Английский
Описание: Tonique наркоманами движения был создан для того, чтобы помочь вам сделать движение неотъемлемой частью вашей жизни, так, чтобы вы стали наркоманами движение и никогда не остановится. Она отражает мое пристрастие к движению и моя одержимость с тела человека и его неограниченные возможности. Тело человека является величайшей машины. Лечения тела а также и задача его с правильной тренировки, а затем пожинать плоды! Tonique наркоманами движение поможет вам усовершенствовать свое тело и твердой для всего тела. Tonique наркоманами движение предлагает вам задачу самостоятельно, чтобы изменить способ орган работает и трансформации. Это большой шаг в направлении подлинного фитнес-центр и новый образ жизни, с помощью фитнесс-центр как инструмент для создания более уверенной в себе. Tonique зависимыми от движения, которые следует шаг вперед по сравнению с Tonique Premier вступительных тренировки моя метод. Чуть более чем за час времени, он создает ваше доверие и учит своего тела для адаптации к более высокий уровень интенсивности. пристрастившиеся к движения помогут вам физического и психического здоровье, повысить ваш фитнес на следующий уровень и подготовить вас к более проблем Tonique родился в движение и Tonique Femme ринит с положительно и заставляет улыбаться! Она будет больно так хорошо! Для этих новых для Tonique метод, Tonique является не только фитнес. Она представляет собой весь образ жизни. Это о вас и помочь вам понять и уважать ваше тело; в проблему и нажмите Далее, любить его и быть уверенным в его. Я хочу, чтобы вы любви к кузову. Однако, если вы хотите чувствовать себя и отлично выглядеть, вы должны уважать себя и своего тела. Его подачи правильно, гидратных и переместить. После того, как вы master ваших потребностей и пожеланий, вы можете в полной мере оценить ваше тело и вы будете чувствовать себя уверенно. Уважать себя с движением. Стать позитивно наркоманами!-Tonique Addicted to Movement was created to help you make movement an integral part of your life, so that you become addicted to motion and never stop moving. It reflects my addiction to movement and my obsession with the human body and its unlimited possibilities. The human body is the greatest machine ever created. Treat your body well and challenge it with the proper workouts, and then reap the rewards! Tonique Addicted to Movement helps you to sculpt and firm your entire body. Tonique Addicted to Movement invites you to challenge yourself, to change the way your body works and to see the transformation. It is a giant step towards true fitness and a new lifestyle, using fitness as your tool to create a more confident you. Tonique Addicted to Movement was designed to be a step up from Tonique Premier the introductory workout to my method. A bit more than an hour long, it builds your confidence and teaches your body to adapt to a higher level of intensity. Addicted to Movement will help you build physical and mental toughness, elevate your fitness to the next level and prepare you to face the greater challenges of Tonique Born To Move and Tonique Femme Fatale with a positive attitude and a smile on your face! It will hurt so good! For those new to Tonique method, Tonique is not just fitness. It represents an entire lifestyle. It is about YOU and helping you understand and respect your body; to challenge it and push it further, to love it and to feel confident in it. I want you to love the body you own. However, if you want to feel and look great, you must respect yourself and your body. Feed it properly, hydrate it and move. Once you master your needs and desires, you can fully appreciate your body and you will feel confident in it. Respect Yourself with Movement. Become Positively Addicted!

Содержание

Addicted to Movement 1.18.46
Express 16.15
Sway 10.03
Verve 7.13
Face to Face (Interview) 20.52
Файлы примеров: отсутствуют
Формат видео: MP4
Видео: AVC, 720x480, 16:9, 30.000 fps, ~ 1758 Kbps
Аудио: AAC, 48.0 KHz, ~ 160.0 Kbps, 2 channels

Media Info

General
Complete name : Addicted to Movement.mp4
Format : MPEG-4
Format profile : Base Media / Version 2
Codec ID : mp42
File size : 1.06 GiB
Duration : 1h 18mn
Overall bit rate mode : Variable
Overall bit rate : 1 925 Kbps
Encoded date : UTC 2036-02-06 06:28:16
Tagged date : UTC 2036-02-06 06:28:16
Writing application : HandBrake 0.10.2 2015060900
Video
ID : 1
Format : AVC
Format/Info : Advanced Video Codec
Format profile : Main@L4.0
Format settings, CABAC : Yes
Format settings, ReFrames : 4 frames
Codec ID : avc1
Codec ID/Info : Advanced Video Coding
Duration : 1h 18mn
Bit rate : 1 758 Kbps
Width : 720 pixels
Height : 480 pixels
Display aspect ratio : 16:9
Original display aspect ratio : 16:9
Frame rate mode : Variable
Frame rate : 29.970 fps
Minimum frame rate : 14.985 fps
Maximum frame rate : 29.970 fps
Standard : NTSC
Color space : YUV
Chroma subsampling : 4:2:0
Bit depth : 8 bits
Scan type : Progressive
Bits/(Pixel*Frame) : 0.170
Stream size : 991 MiB (91%)
Writing library : x264 core 142 r2479 dd79a61
Encoded date : UTC 2036-02-06 06:28:16
Tagged date : UTC 2036-02-06 06:28:16
Color primaries : BT.601-6 525, BT.1358 525, BT.1700 NTSC, SMPTE 170M
Transfer characteristics : BT.709-5, BT.1361
Matrix coefficients : BT.601-6 525, BT.1358 525, BT.1700 NTSC, SMPTE 170M
Audio
ID : 2
Format : AAC
Format/Info : Advanced Audio Codec
Format profile : LC
Codec ID : 40
Duration : 1h 18mn
Bit rate mode : Variable
Bit rate : 160 Kbps
Channel(s) : 2 channels
Channel positions : Front: L R
Sampling rate : 48.0 KHz
Compression mode : Lossy
Stream size : 90.4 MiB (8%)
Title : Stereo
Language : English
Encoded date : UTC 2036-02-06 06:28:16
Tagged date : UTC 2036-02-06 06:28:16
Text
ID : 3
Format : Apple text
Codec ID : text
Duration : 1h 18mn
Bit rate mode : Constant
Bit rate : 0
Stream size : 46.0 Bytes (0%)
Language : English
Encoded date : UTC 2036-02-06 06:28:16
Tagged date : UTC 2036-02-06 06:28:16
Duration_FirstFrame : 4652548

Скриншоты

[teatrix.ru].t13727.torrent 
Торрент: Зарегистрирован [ 2016-01-22 06:05 ] · 29FA561E653AE20E7FAEE3E503EAE6370FCC8352

Скачать .torrent

Скачать

34 KB

Статус: проверено
Скачан: 0 раз
Размер: 1.66 GB
terms.php



Быстрый ответ

Имя:

      
Для отправки сообщений необходимо включить JavaScript
Показать сообщения:    

Текущее время: 10-Дек 09:55

Часовой пояс: UTC + 3


Вы можете начинать темы
Вы можете отвечать на сообщения
Вы не можете редактировать свои сообщения
Вы не можете удалять свои сообщения
Вы не можете голосовать в опросах
Вы не можете прикреплять файлы к сообщениям
Вы можете скачивать файлы