Татьяна Кожевникова - Интим-гимнастика для женщин [2012 г., гимнастика, DVDRip, RUS] Видеоуроки


Статистика раздачи [Обновить пиров]
Размер:  1.1 GB   |    Зарегистрирован:  10 месяцев 13 дней   |    Скачан:  0 раз

Полного источника не было: Никогда

 
   
 
 
 

[Цитировать]

Татьяна Кожевникова - Интим-гимнастика для женщин
Год выпуска: 2012
Тематика: гимнастика
Продолжительность: 01:21:01
Язык: Русский
Описание: Авторская программа Татьяны Кожевниковой включает упражнения, способствующие укреплению брюшного пресса, развитию силы тазовой и мочеполовой диафрагм, стимуляции функции кишечника. Программа нацелена на развитие и совершенствование женственных форм тела и сексуальной энергии женщины, помогает сохранить уверенность в себе, радость от общения с партнёром и молодость и очарование на долгие годы. Кожевникова Татьяна - тренер по фитнес-аэробике, инструктор лечебной физкультуры, кандидат в мастера спорта по конькобежному спорту. Признана единственной в мире женщиной, поднимающей с помощью интимных мышц вес 14 кг (Рекорд Гиннеса 2003 г.).
DVD-диск "Интим-гимнастика для женщин" - Приложение к книге "Татьяна Кожевникова: Лечебно-оздоровительная программа: интим-гимнастика для женщин". Методика направлена на укрепление и подтягивание брюшного пресса, бедер, ягодиц, мышц и связок влагалища, развитие тазовой и мочеполовой диафрагм, стимулирование работы кишечника, улучшение кровообращения в органах малого таза.
Качество: DVDRip (Сэмпл)
Формат: AVI
Видео: 704x528 (1.33:1), 25 fps, XviD ~1736 kbps, 0.19 bit/pixel
Аудио: 48 kHz, AC3, 2/0 (L,R) ch, ~192 kbps
MediaInfo">

Скриншоты MediaInfo


GeneralComplete name : Кожевникова - Интим-гимнастика (Ol).aviFormat : AVIFormat/Info : Audio Video InterleaveFile size : 1.10 GiBDuration : 1h 21mnOverall bit rate : 1 939 KbpsWriting application : VirtualDubMod 1.5.10.3Writing library : VirtualDubMod build 2550/release
VideoID : 0Format : MPEG-4 VisualFormat profile : Advanced Simple@L5Format settings, BVOP : 1Format settings, QPel : NoFormat settings, GMC : No warppointsFormat settings, Matrix : CustomCodec ID : XVIDCodec ID/Hint : XviDDuration : 1h 21mnBit rate : 1 737 KbpsWidth : 704 pixelsHeight : 528 pixelsDisplay aspect ratio : 4:3Frame rate : 25.000 fpsColor space : YUVChroma subsampling : 4:2:0Bit depth : 8 bitsScan type : ProgressiveCompression mode : LossyBits/(Pixel*Frame) : 0.187Stream size : 1 010 MiB (90%)Writing library : XviD 73
AudioID : 1Format : AC-3Format/Info : Audio Coding 3Mode extension : CM (complete main)Format settings, Endianness : BigCodec ID : 2000Duration : 1h 21mnBit rate mode : ConstantBit rate : 192 KbpsChannel count : 2 channelsChannel positions : Front: L RSampling rate : 48.0 KHzBit depth : 16 bitsCompression mode : LossyStream size : 112 MiB (10%)Alignment : Split accross interleavesInterleave, duration : 40 ms (1.00 video frame)Interleave, preload duration : 500 ms
Спасибо Елена1887 за возможность ознакомления!Релиз от группы
[teatrix.ru].t13734.torrent 
Торрент: Зарегистрирован [ 2016-01-22 06:05 ] · 8FE3431DA2B6C432814FE5E317CA8D9ECC17F798

Скачать .torrent

Скачать

12 KB

Статус: проверено
Скачан: 0 раз
Размер: 1.1 GB
terms.php



Быстрый ответ

Имя:

      
Для отправки сообщений необходимо включить JavaScript
Показать сообщения:    

Текущее время: 04-Дек 23:15

Часовой пояс: UTC + 3


Вы можете начинать темы
Вы можете отвечать на сообщения
Вы не можете редактировать свои сообщения
Вы не можете удалять свои сообщения
Вы не можете голосовать в опросах
Вы не можете прикреплять файлы к сообщениям
Вы можете скачивать файлы