Tyler Bramlett - The Warrior Warm Up [2012, фитнес, DVDRip, ENG] (Видеоурок)

DL-List and Torrent activity [Update пиров]
Size:  1.44 GB   |    Registered:  9 months 4 days   |    Completed:  0 times

Seeder not seen: Never



Tyler Bramlett - The Warrior Warm Up
Страна: США
Тематика: фитнес
Тип раздаваемого материала: Видеоурок
Продолжительность: 03:50:06
Год выпуска: 2012
Язык: Английский
Перевод: Отсутствует
Грамотная программа разминки.

скрытый текст

Warrior Warm Up is the simple-to-follow and done-for-you system which will teach you EXACTLY what you ought to do in order to show your typical pre-workout routine right into a MASSIVE, result producing warm up to improve your strength, versatility, mobility, balance as well as coordination. Unleash the actual hidden strength, versatility, balance and coordination in just 15 minutes/day - 3 days/week.
This system is always trying to find the edge the is likely to make you look far better, feel better and also perform better in and out from the gym. Learning the simplest way to warm up to your workouts that creates massive strength, overall flexibility, mobility, balance and also coordination.
The Warrior Warm Up saves you the effort of traveling around the globe, paying $10's of thousands of dollars to locate the secret methods the top fitness professionals are employing on their exceptional high-end clients. It works so well as it was designed never to only replace the traditional warm up regarding basic stretching and also cardio.
The Warrior Warm Up is a method That Replaces These Activities:
- Dynamic Cozy Ups - Change your old energetic warm up (if you might be even doing one) with all the WWU and get better yet results!
- Inversion Training - Inside the upper body sequence you will see inversion training (or upside-down training). If you don't learn how to do things just like headstands or handstands this is the best way to learn.
- Balance Training - Through the entire WWU you will end up building your equilibrium and coordination that will cause you to being able to accomplish handstands and superior yoga poses easily!
- Gymnastic Talent Work - Gymnastic education is awesome!! I could teach you a couple of simple progressions that may teach you to go like a gymnast inside record time.
- Joint Mobility - Mobility is now very popular throughout the last few years and though it has its makes use of, the bottom line is it will take a while to find out any benefit coming from. In the WWU you will observe benefits in the initial week!
- Body Handle & Awareness - Recovering at moving is the inspiration of all fitness achievement. As you progress from the levels of the particular WWU you will quickly unlock your correct potential!
By replacing your own old warm up routine using the Warrior Warm Up you will see massive gains inside your strength, flexibility, balance and coordination that you simply didn't think had been even possible. And all this from a program that takes only quarter-hour to perform.
Through things that you learn, you get increasing your performance to uncommon levels. You get to be the fittest person you realize and kids as well as adults alike tend to be knocking down your door to understand the secret regimen that made all of the difference.
The Warrior Warm Up eBook
The Warrior Warm Up Videos (8 videos)
The Warrior Warm Up Success Tracker Journal
The Warrior Warm Up Follow Along eBook
The Warrior Warm Up Follow Along Videos (5 levels)
Warrior Flexibility eBook
Warrior Flexibility Video
Warrior Recovery eBook
Warrior Recovery Video
Качество: DVDRip
Формат: MP4
Видео кодек: H.264
Аудио кодек: AAC
Видео: AVC at 904 Kbps 704 x 400 (1.760) at 29.970 fps
Аудио: AAC at 136 Kbps 2 channels, 44.1 KHz



Complete name : D:\Videos\Tyler Bramlett - The Warrior Warm Up\Follow Along Videos\Warrior Warm Up Level 4.mp4
Format : MPEG-4
Format profile : Base Media / Version 2
Codec ID : mp42
File size : 114 MiB
Duration : 15mn 0s
Overall bit rate : 1 060 Kbps
Encoded date : UTC 2012-06-20 21:47:20
Tagged date : UTC 2012-06-20 21:50:00
Writing application : HandBrake 0.9.6 2012022800
ID : 1
Format : AVC
Format/Info : Advanced Video Codec
Format profile : Baseline@L3.0
Format settings, CABAC : No
Format settings, ReFrames : 2 frames
Codec ID : avc1
Codec ID/Info : Advanced Video Coding
Duration : 15mn 0s
Bit rate mode : Variable
Bit rate : 922 Kbps
Width : 704 pixels
Height : 400 pixels
Display aspect ratio : 16:9
Frame rate mode : Variable
Frame rate : 29.970 fps
Minimum frame rate : 29.960 fps
Maximum frame rate : 29.970 fps
Color space : YUV
Chroma subsampling : 4:2:0
Bit depth : 8 bits
Scan type : Progressive
Bits/(Pixel*Frame) : 0.109
Stream size : 99.0 MiB (87%)
Writing library : x264 core 120
Encoding settings : cabac=0 / ref=2 / deblock=1:0:0 / analyse=0x1:0x111 / me=umh / subme=6 / psy=1 / psy_rd=1.00:0.00 / mixed_ref=1 / me_range=16 / chroma_me=1 / trellis=0 / 8x8dct=0 / cqm=0 / deadzone=21,11 / fast_pskip=1 / chroma_qp_offset=-2 / threads=6 / sliced_threads=0 / nr=0 / decimate=1 / interlaced=0 / bluray_compat=0 / constrained_intra=0 / bframes=0 / weightp=0 / keyint=300 / keyint_min=30 / scenecut=40 / intra_refresh=0 / rc_lookahead=40 / rc=crf / mbtree=1 / crf=20.0 / qcomp=0.60 / qpmin=3 / qpmax=69 / qpstep=4 / ip_ratio=1.40 / aq=1:1.00
Encoded date : UTC 2012-06-20 21:47:20
Tagged date : UTC 2012-06-20 21:50:00
Color primaries : BT.601-6 525, BT.1358 525, BT.1700 NTSC, SMPTE 170M
Transfer characteristics : BT.709-5, BT.1361
Matrix coefficients : BT.601-6 525, BT.1358 525, BT.1700 NTSC, SMPTE 170M
ID : 2
Format : AAC
Format/Info : Advanced Audio Codec
Format profile : LC
Codec ID : 40
Duration : 14mn 59s
Bit rate mode : Variable
Bit rate : 132.3 Kbps
Maximum bit rate : 151 Kbps
Channel(s) : 2 channels
Channel positions : Front: L R
Sampling rate : 44.1 KHz
Compression mode : Lossy
Stream size : 14.5 MiB (13%)
Language : English
Encoded date : UTC 2012-06-20 21:47:20
Tagged date : UTC 2012-06-20 21:50:00
Torrent: Registered [ 2016-01-22 06:05 ] · 3E34E1F23E4A2840BE848154F0C4205A76AAA4DA

Download .torrent


17 KB

Status: checked
Completed: 0 times
Size: 1.44 GB

Quick Reply


Heads necessary to send messages to enable JavaScript
Display posts:    

Current time is: 26-Oct 22:10

All times are UTC + 3

You can post new topics in this forum
You can reply to topics in this forum
You cannot edit your posts in this forum
You cannot delete your posts in this forum
You cannot vote in polls in this forum
You cannot attach files in this forum
You can download files in this forum