Анат Баниэль - Здоровая спина, шея и плечи / Anat Baniel - Healthy Backs, Necks and Shoulders [соматика, нейрогимнастика, DVDRip, ENG] (Видеоурок)


Статистика раздачи [Обновить пиров]
Размер:  3.01 GB   |    Зарегистрирован:  10 месяцев 20 дней   |    Скачан:  0 раз

Полного источника не было: Никогда

 
   
 
 
 

[Цитировать]

Анат Баниэль - Здоровая спина, шея и плечи / Anat Baniel - Healthy Backs, Necks and Shoulders
Страна: США
Тематика: соматика, нейрогимнастика
Тип раздаваемого материала: Видеоурок
Продолжительность: 12:20:07
Язык: Английский
Перевод: Отсутствует
Описание:
Последние тридцать лет Анат Баниэль помогает людям, получившим серьезную травму, вновь доверять жизни; спортсменам добиваться личных рекордов; маленьким детям с серьезными неврологическими проблемами лучше овладевать своим телом и сознанием; мужчинам и женщинам любого возраста достигать физической, умственной и эмоциональной гибкости. Необыкновенные результаты, которых добились клиенты благодаря совместной работе, побудили автора сформулировать ключевые требования - девять правил жизненной силы, - которые позволяют мозгу пробудиться, сбросить прежние ограничения и начать работать на полную мощность, увеличивая нашу силу, интеллект, здоровье и способность находить общий язык с окружающими. Правила легко усвоить, они почти очевидны, стоит только обратить на них внимание.-

Healthy Backs, Introductory Program

Experience lower back pain relief and upper back pain relief with these six 30-40 minute back exercises taught by Anat Baniel. Whether you have occasional pain, stiffness, chronic pain, or you just want your back to become stronger and flexibile, these safe and enjoyable Transformational Movement LessonsSM will provide you with dramatic and immediate results. We recommend all students begin with this program before moving on to other Anat Baniel Method programs.

Healthy Necks & Shoulders, Introductory Program

Six 30-35 minute movement lessons that are safe, easy to do, enjoyable and transformational. Join the thousands of people who have overcome limitation and pain in their neck and shoulders with this program. Through the Anat Baniel Method you will tap into the remarkable capacity of your brain to create new patterns and possibilities and reach new levels of well-being, stamina, and vitality in body, mind, and spirit.

Healthy Backs, Scoliosis & Pain Relief

Six 30-35 minute movement lessons that are safe, easy to do, enjoyable and transformational. Join the thousands of people who have overcome limitation and pain in their neck and shoulders with this program. Through the Anat Baniel Method you will tap into the remarkable capacity of your brain to create new patterns and possibilities and reach new levels of well-being, stamina, and vitality in body, mind, and spirit.
“Increase mobility and comfort in your back and shoulders; reduce tension and pain while increasing strength and flexibility throughout your body.” Anat Baniel
"Anat Baniel's work with children has to bе seen to bе believed" - Dr Moshe Feldenkrais
"Работу Анат с детьми нужно увидеть, чтобы поверить в это" - Моше Фельденкрайз.
-Качество: DVDRip
Формат: MP4
Видео кодек: H.264
Аудио кодек: AAC
Видео: AVC at 491 Kbps 640 x 480 (1.333) at 24.000 fps
Аудио: AAC at 62.3 Kbps 1 channel, 32.0 KHz

Скриншоты

MediaInfo

General
Complete name : D:\Videos\Anat Baniel - Healthy Backs, Necks and Shoulders\Anat Baniel - Healthy Backs, Introductory Program\1-4-lesson-3.mp4
Format : MPEG-4
Codec ID : M4V
File size : 147 MiB
Duration : 37mn 3s
Overall bit rate : 555 Kbps
Encoded date : UTC 2013-03-19 01:32:28
Tagged date : UTC 2013-03-19 01:32:28
©TIM : 00:00:00:00
Video
ID : 1
Format : AVC
Format/Info : Advanced Video Codec
Format profile : Main@L3.1
Format settings, CABAC : No
Format settings, ReFrames : 2 frames
Format settings, GOP : M=1, N=33
Codec ID : avc1
Codec ID/Info : Advanced Video Coding
Duration : 37mn 3s
Bit rate mode : Variable
Bit rate : 491 Kbps
Width : 640 pixels
Height : 480 pixels
Display aspect ratio : 4:3
Frame rate mode : Constant
Frame rate : 24.000 fps
Standard : NTSC
Color space : YUV
Chroma subsampling : 4:2:0
Bit depth : 8 bits
Scan type : Progressive
Bits/(Pixel*Frame) : 0.067
Stream size : 130 MiB (88%)
Language : English
Encoded date : UTC 2013-03-19 01:32:28
Tagged date : UTC 2013-03-19 01:32:28
Audio
ID : 2
Format : AAC
Format/Info : Advanced Audio Codec
Format profile : LC
Codec ID : 40
Duration : 37mn 3s
Bit rate mode : Variable
Bit rate : 62.3 Kbps
Maximum bit rate : 104 Kbps
Channel(s) : 1 channel
Channel positions : Front: C
Sampling rate : 32.0 KHz
Compression mode : Lossy
Stream size : 16.5 MiB (11%)
Language : English
Encoded date : UTC 2013-03-19 01:32:28
Tagged date : UTC 2013-03-19 01:32:28
[teatrix.ru].t13736.torrent 
Торрент: Зарегистрирован [ 2016-01-22 06:05 ] · 8D6D01E71E9530AC7155EAC2B10A19028214F56C

Скачать .torrent

Скачать

18 KB

Статус: проверено
Скачан: 0 раз
Размер: 3.01 GB
terms.php



Быстрый ответ

Имя:

      
Для отправки сообщений необходимо включить JavaScript
Показать сообщения:    

Текущее время: 11-Дек 07:15

Часовой пояс: UTC + 3


Вы можете начинать темы
Вы можете отвечать на сообщения
Вы не можете редактировать свои сообщения
Вы не можете удалять свои сообщения
Вы не можете голосовать в опросах
Вы не можете прикреплять файлы к сообщениям
Вы можете скачивать файлы