[Scott Sonnon] - RMAX Recuper8 Training Program [2007, фитнес, офп, DVDRip, ENG] (Видеоурок)


Статистика раздачи [Обновить пиров]
Размер:  1.34 GB   |    Зарегистрирован:  10 месяцев 18 дней   |    Скачан:  0 раз

Полного источника не было: Никогда

 
   
 
 
 

[Цитировать]

[Scott Sonnon] - RMAX Recuper8 Training Program
Тематика: фитнес, офп
Тип раздаваемого материала: Видеоурок
Продолжительность: 02:45:36
Год выпуска: 2007
Язык: Английский
Перевод: Отсутствует
Описание: Размышления Скотта Соннона на тему биомеханики, тренировки, стресса, востановления. Бонусом идет книга Pain Free Mobility и краткое видео tacfit recovery

Качество: DVDRip
Формат: M4V
Видео кодек: H.264
Аудио кодек: AAC
Видео: MPEG-4 Visual at 1 209 Kbps 640 x 480 (1.333) at 29.970 fps
Аудио: AAC at 96.0 Kbps 2 channels, 44.1 KHz

MediaInfo

General
Complete name : Scott Sonnon - RMAX Recuper8 Training Program\RMAX_RESET_DVD_Part1.m4v
Format : MPEG-4
Format profile : Base Media
Codec ID : isom
File size : 156 MiB
Duration : 18mn 28s
Overall bit rate : 1 180 Kbps
Encoded date : UTC 2012-05-10 04:05:11
Tagged date : UTC 2012-05-10 04:05:11
Video
ID : 2
Format : MPEG-4 Visual
Format profile : Simple@L3
Format settings, BVOP : No
Format settings, QPel : No
Format settings, GMC : No warppoints
Format settings, Matrix : Default (H.263)
Codec ID : 20
Duration : 18mn 28s
Bit rate mode : Constant
Bit rate : 1 080 Kbps
Width : 640 pixels
Height : 480 pixels
Display aspect ratio : 4:3
Frame rate mode : Constant
Frame rate : 29.970 fps
Original frame rate : 29.000 fps
Color space : YUV
Chroma subsampling : 4:2:0
Bit depth : 8 bits
Scan type : Progressive
Compression mode : Lossy
Bits/(Pixel*Frame) : 0.117
Stream size : 143 MiB (91%)
Writing library : XviD 1.2.1 (UTC 2008-12-04)
Language : English
Audio
ID : 1
Format : AAC
Format/Info : Advanced Audio Codec
Format profile : LC
Codec ID : 40
Duration : 18mn 28s
Bit rate mode : Constant
Bit rate : 96.0 Kbps
Channel(s) : 2 channels
Channel positions : Front: L R
Sampling rate : 44.1 KHz
Compression mode : Lossy
Stream size : 12.7 MiB (8%)
Language : English
[teatrix.ru].t13740.torrent 
Торрент: Зарегистрирован [ 2016-01-22 06:05 ] · 83F8885DB7AB9593FCEA7001F05151CD5F888A69

Скачать .torrent

Скачать

14 KB

Статус: проверено
Скачан: 0 раз
Размер: 1.34 GB
terms.php



Быстрый ответ

Имя:

      
Для отправки сообщений необходимо включить JavaScript
Показать сообщения:    

Текущее время: 09-Дек 20:29

Часовой пояс: UTC + 3


Вы можете начинать темы
Вы можете отвечать на сообщения
Вы не можете редактировать свои сообщения
Вы не можете удалять свои сообщения
Вы не можете голосовать в опросах
Вы не можете прикреплять файлы к сообщениям
Вы можете скачивать файлы