Sadie Nardini / Сэди Нардини - Йога в движении [2014, йога, фитнес, SATRip, RUS] (Видеоурок)


Статистика раздачи [Обновить пиров]
Размер:  2.86 GB   |    Зарегистрирован:  10 месяцев 16 дней   |    Скачан:  1 раз

Полного источника не было: 6 дней

 
   
 
 
 

[Цитировать]

Йога в движении
Sadie Nardini / Сэди Нардини-Год выпуска: 2014
Страна: США, ТК "Veria" / Россия, ТК "Живи!"
Жанр: йога, фитнес
Продолжительность: 00:41:46
Язык: Русский-Описание: По будням зарядиться энергией на целый день поможет Сэди Нардини / Sadie Nardini, которая привнесла свой неповторимый колорит в занятия йогой. Больше задора! Смотрите в июне на телеканале Живи!
«Единственная красота, которую я знаю, – это здоровье», – говаривал великий Гейне. Сегодня внимание телезрителей заостряется на канале о здоровом образе жизни VERIA – мировом бренде, детище корпорации ZEEL (ZEE Entertainment Enterprises Ltd.).
Американский телеканал Veria Living TV в 2013 году начал вещание в России. Этот канал направлен на стимулирование здорового образа жизни. Veria предлагает развлечения, стиль жизни, приготовление пищи (с акцентом на здоровое приготовление пищи), спорт и путешествия. Veria Living TV планирует вещающие на русском языке в формате высокой четкости (HDTV) в сотрудничестве с широко известным ЖиВи ТВ.
-Сэмпл >>>-Качество: SATRip
Формат: AVI
Видео: 688x384 (1.79:1), 25 fps, XviD ~1367 kbps avg, 0.21 bit/pixel
Аудио: 48 kHz, MPEG Layer 3, 2 ch, ~128.00 kbps

Перечень раздаваемого материала


1 неделя
01 Просыпаемся вместе с йогой
02 Йога 101
03 Без паники!
04 Йога губка
05 Я не могу заснуть
2 неделя
06 Маленькое черное платье - МЧП йога
07 Сжигание калорий
08 Источник смелости
09 Расслабься!
10 Не сегодня, милый!
Дополнительно">

Скриншоты видео Дополнительно


Реклама удалена-VERIA: мир красоты и здоровья
«Единственная красота, которую я знаю, – это здоровье», – говаривал великий Гейне. Сегодня внимание телезрителей заостряется на канале о здоровом образе жизни VERIA – мировом бренде, детище корпорации ZEEL (ZEE Entertainment Enterprises Ltd.).
VERIA (распространяется на платформе канала «ЖИВИ») – это более 50 программ от ведущих специалистов в области фитнеса, питания, здоровья, красоты и воспитания детей. VERIA – это ежедневно 4,5 часа оригинального контента Голливуда, а также программы собственного производства.
Авторы канала о его концепции говорят так: «Мы создаем мир красоты и здоровья, в котором не просто рассказываем о полноценной жизни без болезней, но и учим, как правильно вести здоровый образ жизни. Миссия бренда – искренно и вдохновенно рассказывать о преимуществах здорового образа жизни во всех его проявлениях».
Увлеченность создателей VERIA пробуждает стремление учиться, желание быть здоровым и счастливым.
Важно: VERIA предоставляет только тщательно проверенную информацию. Гарантируется оригинальность и содержательность программ, призванных покорить сердце каждого зрителя. Оригинальность VERIA в том, что канал формирует правильное восприятие, предлагая новые, оригинальные ответы на общие вопросы. Возникает честный и прямой разговор, при котором затрагиваются самые разные темы.
Зона охвата канала – вся территория Российской Федерации, страны СНГ и Балтии. В большей степени VERIA ориентирован на женщин 18–45 лет со средним и высоким уровнем дохода, желающих изменить свой образ жизни, улучшить физическую форму. Здоровье никогда не может потерять своей ценности в глазах человека, потому что и в довольстве, и в роскоши жить без здоровья плохо. Здоровый образ жизни складывается из многого.

Отчет MI

GeneralComplete name : Yoga.v,dvizhenii - Sadie Nardini.aviFormat : AVIFormat/Info : Audio Video InterleaveFile size : 450 MiBDuration : 41mn 46sOverall bit rate : 1 505 KbpsWriting application : VirtualDubModRus 1.5.10.2 (build 2542/release)Writing library : VirtualDubMod build 2542/release
VideoID : 0Format : MPEG-4 VisualFormat profile : Advanced Simple@L5Format settings, BVOP : 2Format settings, QPel : NoFormat settings, GMC : No warppointsFormat settings, Matrix : CustomMuxing mode : Packed bitstreamCodec ID : XVIDCodec ID/Hint : XviDDuration : 41mn 46sBit rate : 1 367 KbpsWidth : 688 pixelsHeight : 384 pixelsDisplay aspect ratio : 16:9Frame rate : 25.000 fpsColor space : YUVChroma subsampling : 4:2:0Bit depth : 8 bitsScan type : ProgressiveCompression mode : LossyBits/(Pixel*Frame) : 0.207Stream size : 409 MiB (91%)Writing library : XviD 65
AudioID : 1Format : MPEG AudioFormat version : Version 1Format profile : Layer 3Codec ID : 55Codec ID/Hint : MP3Duration : 41mn 46sBit rate mode : ConstantBit rate : 128 KbpsChannel count : 2 channelsSampling rate : 48.0 KHzCompression mode : LossyStream size : 38.2 MiB (9%)Alignment : Aligned on interleavesInterleave, duration : 40 ms (1.00 video frame)Interleave, preload duration : 504 ms
[teatrix.ru].t13750.torrent 
Торрент: Зарегистрирован [ 2016-01-22 06:05 ] · 2B0FC3640443320089FD0223441AC06E4DAD17DA

Скачать .torrent

Скачать

15 KB

Статус: проверено
Скачан: 1 раз
Размер: 2.86 GB
terms.php



Быстрый ответ

Имя:

      
Для отправки сообщений необходимо включить JavaScript
Показать сообщения:    

Текущее время: 07-Дек 17:30

Часовой пояс: UTC + 3


Вы можете начинать темы
Вы можете отвечать на сообщения
Вы не можете редактировать свои сообщения
Вы не можете удалять свои сообщения
Вы не можете голосовать в опросах
Вы не можете прикреплять файлы к сообщениям
Вы можете скачивать файлы