Бодислим для похудения [2010, бодифлекс, фитнес, SATRip, RUS]


Статистика раздачи [Обновить пиров]
Размер:  9.96 GB   |    Зарегистрирован:  10 месяцев 12 дней   |    Скачан:  0 раз

Полного источника не было: Никогда

 
   
 
 
 

[Цитировать]

Бодислим для похудения
Страна: Россия
Тематика: бодифлекс, фитнес
Тип раздаваемого материала: Видеоуроки
Продолжительность: 33 × 00:26:00
Год выпуска: 2010
Язык: Русский
Перевод: Не требуется
Описание: Онлайн-комплекс «Бодислим» — это результативная методика похудения, объединяющая в себе дыхательную гимнастику бодифлекс, трайбл, Т-тап и дыхательные коктейли. Фитнес-программа эффективна для быстрой потери веса и создания мышечного корсета. Смотрите фитнес-видео онлайн и занимайтесь фитнесом дома! Занятия первого сезона курса «Бодислим с Кариной Чешуйко и Светланой Ратниковой» основаны на известной методике бодифлекс и направлены в первую очередь на быстрое и эффективное похудение.
Качество: SATRip
Формат: MP4
Видео кодек: H.264
Аудио кодек: AAC
Видео: AVC, 720×576 (4:3), 1500 кбит/с, 50 fps
Аудио: AAC, 157 кбит/с, 48.0 KHz, 2 ch

MediaInfo

General
Complete name : G:\JV\Дыхательные практики\Бодислим для похудения\1.mp4
Format : MPEG-4
Format profile : Base Media / Version 2
Codec ID : mp42
File size : 309 MiB
Duration : 26mn 0s
Overall bit rate mode : Variable
Overall bit rate : 1 662 Kbps
Encoded date : UTC 2011-02-07 15:46:16
Tagged date : UTC 2011-02-07 15:46:16
Video
ID : 1
Format : AVC
Format/Info : Advanced Video Codec
Format profile : High@L3.2
Format settings, CABAC : Yes
Format settings, ReFrames : 2 frames
Codec ID : avc1
Codec ID/Info : Advanced Video Coding
Duration : 26mn 0s
Bit rate mode : Constant
Bit rate : 1 500 Kbps
Width : 720 pixels
Height : 576 pixels
Display aspect ratio : 4:3
Frame rate mode : Constant
Frame rate : 50.000 fps
Original frame rate : 25.000 fps
Standard : PAL
Color space : YUV
Chroma subsampling : 4:2:0
Bit depth : 8 bits
Scan type : Interlaced
Bits/(Pixel*Frame) : 0.072
Stream size : 279 MiB (90%)
Language : English
Encoded date : UTC 2011-02-07 15:46:16
Tagged date : UTC 2011-02-07 15:46:16
Color primaries : BT.601 PAL
Transfer characteristics : BT.470 System B, BT.470 System G
Matrix coefficients : BT.601
Audio
ID : 2
Format : AAC
Format/Info : Advanced Audio Codec
Format profile : LC
Codec ID : 40
Duration : 26mn 0s
Bit rate mode : Variable
Bit rate : 157 Kbps
Maximum bit rate : 240 Kbps
Channel(s) : 2 channels
Channel positions : Front: L R
Sampling rate : 48.0 KHz
Compression mode : Lossy
Stream size : 29.2 MiB (9%)
Language : English
Encoded date : UTC 2011-02-07 15:46:16
Tagged date : UTC 2011-02-07 15:46:16
[teatrix.ru].t13754.torrent 
Торрент: Зарегистрирован [ 2016-01-22 06:05 ] · 64694AD6FEDB801C63D6FA331ABA4161BF74869E

Скачать .torrent

Скачать

27 KB

Статус: проверено
Скачан: 0 раз
Размер: 9.96 GB
terms.php



Быстрый ответ

Имя:

      
Для отправки сообщений необходимо включить JavaScript
Показать сообщения:    

Текущее время: 04-Дек 02:52

Часовой пояс: UTC + 3


Вы можете начинать темы
Вы можете отвечать на сообщения
Вы не можете редактировать свои сообщения
Вы не можете удалять свои сообщения
Вы не можете голосовать в опросах
Вы не можете прикреплять файлы к сообщениям
Вы можете скачивать файлы