Suzanne Bowen Barre Amped & Barre Amped Boot Camp [2014, фитнес, DVDRip, ENG] (Видеоурок)


Статистика раздачи [Обновить пиров]
Размер:  1.11 GB   |    Зарегистрирован:  10 месяцев 15 дней   |    Скачан:  2 раза

Полного источника не было: 6 дней

 
   
 
 
 

[Цитировать]

Suzanne Bowen Barre Amped & Barre Amped Boot Camp
Страна: США
Тематика: фитнес
Тип раздаваемого материала: Видеоурок
Продолжительность: 1:31:36 + 1:20:47
Год выпуска: 2014
Язык: Английский
Перевод: Отсутствует
Описание:
Suzanne Bowen Barre Amped
BarreAmped - это доказанный метод формирования тела, основанный на танце, пилатесе и йоге. В течении этой мощной, направленной на формирование тела, тренировки под руководством Сюзанны Боуен вы узнаете, что означает девиз BarreAmped - "Встряхнись, чтобы измениться". Также вы быстро поймете, почему пять основных сегментов упражнеий, могут давать экстремальные результаты с помощью низко-интенсивных движений, связывающих тело и разум. Сюзана Боуен, основатель BarreAmped, имеет опыт работы в индустрии фитнеса более 13 лет. Тренируясь по классическому методу Лоты Берк, Сюзана создала BarreAmped, основанную на классической технике, нейтральном положении позвоночника и прочной системе выравнивания.
Suzanne Bowen Barre Amped Boot Camp
Тренировочный лагерь BarreAmped помог сотням клиентов по всему миру сжечь жир и постройнеть, с помощю классических тренировок у станка и низкоинтенсивных, не утомительных кардио интервалов. Сюзана Боуен, создатель BarreAmped, проведет вас через интенсивные, но выполнимые сегменты тренировок, которые можно делать как сами по себе, смесь из некоторых или все вместе в одной сумасшедшей тренировке для сжигания жира. Вы быстро "встряхнетесь, чтобы измениться". Сюзана Боуен, основатель BarreAmped, имеет опыт работы в индустрии фитнеса более 13 лет. Тренируясь по классическому методу Лоты Берк, Сюзана создала BarreAmped, основанную на классической технике, нейтральном положении позвоночника и прочной системе выравнивания.

Описание на английском

Suzanne Bowen Barre Amped
Classic Barre Meets Extreme Results Taught in over 50 studios worldwide, BarreAmped is a proven body shaping technique based on dance, Pilates and yoga. Led by creator Suzanne Bowen, you will see what BarreAmped's motto "Shake to Change" means through this powerful form focused workout. You will also quickly see why the five main exercise segments can produce extreme results with low impact, mind-body connecting moves. Suzanne Bowen, founder of SBf and creator of BarreAmped, has more than 13 years in the fitness industry. Classically trained in The Lotte Berk Method, the original barre studio in the U.S., Suzanne created BarreAmped, based on classic technique, a neutral spine, and a solid foundation of alignment. Workouts consist of: Warm Up Light Weight Work Thigh Work Seat Work Mat Work Stretch Plus a bonus tutorial
Suzanne Bowen Barre Amped Boot Camp
BarreAmped Boot Camp has helped hundreds of clients worldwide burn fat and lean out with classic barre combined with low impact, non-punishing cardio intervals. Suzanne Bowen, creator of BarreAmped, leads you through challenging but doable workout segments that can be done by themselves, mixed and matched, or all together for one incredible BarreAmped Boot Camp Fat Blast! You will quickly be "shaking to change" with this one! Suzanne Bowen, founder of SBf and creator of BarreAmped, has more than 13 years in the fitness industry. Classically trained in The Lotte Berk Method, the original barre studio in the U.S., Suzanne created BarreAmped, based on classic technique, a neutral spine, and a solid foundation of alignment. Workouts consist of: Warm Up Arm Work Thigh Work Seat Work Core Stretch Bonus Tutorial Instructor's name: Suzanne Bowen Type of Workout: Toning Fitness Level: Intermediate-Advanced Equipment Needed: Light Hand Weights
Качество: DVDRip
Формат: MP4
Видео кодек: H.264
Аудио кодек: AAC
Видео: MPEG4 Video (H264) 672x384 23.98fps 793Kbps
Аудио: AAC 44100Hz stereo 127kbps

Отчёт MediaInfo

Общее
Полное имя : C:\...\Suzanne Bowen - Barre Amped\Suzanne Bowen - Barre Amped Boot Camp.mp4
Формат : MPEG-4
Профиль формата : Base Media
Идентификатор кодека : isom
Размер файла : 535 Мбайт
Продолжительность : 1 ч. 20 м.
Общий поток : 926 Кбит/сек
Тип содержимого : 9
Дата кодирования : UTC 2014-03-29 22:00:40
Дата пометки : UTC 2014-03-29 22:00:40
Видео
Идентификатор : 2
Формат : AVC
Формат/Информация : Advanced Video Codec
Профиль формата : Baseline@L3.0
Параметр CABAC формата : Нет
Параметр ReFrames формата : 1 кадр
Идентификатор кодека : avc1
Идентификатор кодека/Информация : Advanced Video Coding
Продолжительность : 1 ч. 20 м.
Битрейт : 793 Кбит/сек
Ширина : 672 пикселя
Высота : 384 пикселя
Соотношение сторон : 16:9
Режим частоты кадров : Постоянный
Частота кадров : 23,976 кадра/сек
Частота кадров в оригинале : 23,000 кадра/сек
Цветовое пространство : YUV
Субдискретизация насыщенности : 4:2:0
Битовая глубина : 8 бит
Тип развёртки : Прогрессивная
Бит/(Пиксели*Кадры) : 0.128
Размер потока : 458 Мбайт (86%)
Библиотека кодирования : њЇДҐD6рЏ
Язык : English
Аудио
Идентификатор : 1
Формат : AAC
Формат/Информация : Advanced Audio Codec
Профиль формата : LC
Идентификатор кодека : 40
Продолжительность : 1 ч. 20 м.
Вид битрейта : Постоянный
Битрейт : 128 Кбит/сек
Каналы : 2 канала
Расположение каналов : Front: L R
Частота : 44,1 КГц
Метод сжатия : С потерями
Размер потока : 74,0 Мбайт (14%)
Язык : English

Скриншоты


Благодарим ninanilina за предоставленные материалы!!!
[teatrix.ru].t13756.torrent 
Торрент: Зарегистрирован [ 2016-01-22 06:05 ] · 82CAF76DBA7F2F676E54DF9E01EB1947C4A4E279

Скачать .torrent

Скачать

12 KB

Статус: проверено
Скачан: 2 раз
Размер: 1.11 GB
terms.php



Быстрый ответ

Имя:

      
Для отправки сообщений необходимо включить JavaScript
Показать сообщения:    

Текущее время: 06-Дек 15:10

Часовой пояс: UTC + 3


Вы можете начинать темы
Вы можете отвечать на сообщения
Вы не можете редактировать свои сообщения
Вы не можете удалять свои сообщения
Вы не можете голосовать в опросах
Вы не можете прикреплять файлы к сообщениям
Вы можете скачивать файлы