Фитнес-календарь. Неделя Востока [2008, фитнес, оздоровительные практики, ушу, DVDRip, RUS] (Видеоурок)


Статистика раздачи [Обновить пиров]
Размер:  958 MB   |    Зарегистрирован:  10 месяцев 18 дней   |    Скачан:  0 раз

Полного источника не было: Никогда

 
   
 
 
 

[Цитировать]

Фитнес-календарь. Неделя Востока. Ушу
Страна: Россия
Тематика: Ушу (Чанцюань)
Тип раздаваемого материала: Видеоурок
Продолжительность: 01:14:00
Год выпуска: 2008
Язык: Русский
Перевод: Не требуется
Описание:
Эта неделя посвящена Востоку. Попробуйте день начать без суеты, созерцая себя и окружающий мир. Следуя за движениями мастера Ушу, вы почувствуете неторопливый ток времени, которое напрямую свяжет вас с накопленой веками мудростью мастеров Древнего Китая. Семь практик по 8-10 минут на каждый день недели откроют для вас источник силы и энергии для достижения своих повседневных целей, как духовных так и физических.
Ескулов Джамал, тренер по ушу, подедитель, призер и участник чемпионатов СССР, России, Мира и Европы. Старший тренер Московской области по ушу-таолу. Главный тренер спортивного клуба "Гармония".
Качество : DVDRip
Формат: AVI
Видео: 704x400 (1.76:1), 25 fps, XviD build 65 ~1662 kbps avg, 0.24 bit/pixel
Аудио: 48 kHz, AC3 Dolby Digital, 2/0 (L,R) ch, ~192 kbps

Скриншоты



От shaolingirlg (спасибо ему за DVD): На самом деле на диске - чанцюань (спортивное направление, базовая составляющая: жоугун, цзибэньгун и т.п.). К оздоровительным практикам имеет такое же отношение как и все виды физических упражнений комплексного характера (утренняя зарядка, оздоровительный бег, футбол во дворе, волейбол на летнем пляже...)

Отчет MI

GeneralComplete name : Fitness.Kalendar.Nedelya.Vostoka.aviFormat : AVIFormat/Info : Audio Video InterleaveFile size : 958 MiBDuration : 1h 11mnOverall bit rate : 1 864 KbpsWriting application : VirtualDubModRus 1.5.10.2 (build 2542/release)Writing library : VirtualDubMod build 2542/release
VideoID : 0Format : MPEG-4 VisualFormat profile : Advanced Simple@L5Format settings, BVOP : 1Format settings, QPel : NoFormat settings, GMC : No warppointsFormat settings, Matrix : CustomCodec ID : XVIDCodec ID/Hint : XviDDuration : 1h 11mnBit rate : 1 662 KbpsWidth : 704 pixelsHeight : 400 pixelsDisplay aspect ratio : 16:9Frame rate : 25.000 fpsColor space : YUVChroma subsampling : 4:2:0Bit depth : 8 bitsScan type : ProgressiveCompression mode : LossyBits/(Pixel*Frame) : 0.236Stream size : 854 MiB (89%)Writing library : XviD 65
AudioID : 1Format : AC-3Format/Info : Audio Coding 3Mode extension : CM (complete main)Format settings, Endianness : BigCodec ID : 2000Duration : 1h 11mnBit rate mode : ConstantBit rate : 192 KbpsChannel count : 2 channelsChannel positions : Front: L RSampling rate : 48.0 KHzBit depth : 16 bitsCompression mode : LossyStream size : 98.6 MiB (10%)Alignment : Split accross interleavesInterleave, duration : 40 ms (1.00 video frame)Interleave, preload duration : 500 ms
[teatrix.ru].t13757.torrent 
Торрент: Зарегистрирован [ 2016-01-22 06:05 ] · 4BBF47C28A9AC98001FD0C85649E31E4AD2EC6A0

Скачать .torrent

Скачать

19 KB

Статус: проверено
Скачан: 0 раз
Размер: 958 MB
terms.php



Быстрый ответ

Имя:

      
Для отправки сообщений необходимо включить JavaScript
Показать сообщения:    

Текущее время: 09-Дек 18:34

Часовой пояс: UTC + 3


Вы можете начинать темы
Вы можете отвечать на сообщения
Вы не можете редактировать свои сообщения
Вы не можете удалять свои сообщения
Вы не можете голосовать в опросах
Вы не можете прикреплять файлы к сообщениям
Вы можете скачивать файлы