Фитнес для беременных с Сюзанной Боуэн [2014, фитнес для беременных, WebRip, ENG] (Видеоурок)


Статистика раздачи [Обновить пиров]
Размер:  1.68 GB   |    Зарегистрирован:  10 месяцев 19 дней   |    Скачан:  0 раз

Полного источника не было: Никогда

 
   
 
 
 

[Цитировать]

Фитнес для беременных с Сюзанной Боуэн
Страна: USA
Тематика: фитнес для беременных
Тип раздаваемого материала: Видеоурок
Год выпуска: 2014
Язык: Английский
Перевод: Отсутствует
Описание: Онлайн-уроки в стиле barre для беременных с сайта Сюзанны Боуэн. Продолжительность от 5 до 40 минут. В некоторых тренировках используются маленький мягкий мяч и фитбол (опционально).
Техданные для всех файлов одинаковые

скрытый текст

Format : MPEG-4
Format profile : Base Media
Codec ID : isom
File size : 140 MiB
Duration : 20mn 50s
Overall bit rate : 938 Kbps
Movie name : pre 13
Album/Performer : Bowen
Encoded date : UTC 2014-01-07 03:17:46
Tagged date : UTC 2014-01-07 03:17:46
Writing application : Lavf54.6.100
desc : This video is about pre 13
Video
ID : 1
Format : AVC
Format/Info : Advanced Video Codec
Format profile : Baseline@L3.0
Format settings, CABAC : No
Format settings, ReFrames : 2 frames
Codec ID : avc1
Codec ID/Info : Advanced Video Coding
Duration : 20mn 50s
Bit rate : 800 Kbps
Width : 854 pixels
Height : 480 pixels
Display aspect ratio : 16:9
Frame rate mode : Variable
Frame rate : 29.970 fps
Minimum frame rate : 15.000 fps
Maximum frame rate : 30.000 fps
Color space : YUV
Chroma subsampling : 4:2:0
Bit depth : 8 bits
Scan type : Progressive
Bits/(Pixel*Frame) : 0.065
Stream size : 119 MiB (85%)
Writing library : x264 core 118
Encoding settings : cabac=0 / ref=2 / deblock=1:0:0 / analyse=0x1:0x111 / me=umh / subme=8 / psy=0 / mixed_ref=1 / me_range=16 / chroma_me=1 / trellis=1 / 8x8dct=0 / cqm=0 / deadzone=21,11 / fast_pskip=1 / chroma_qp_offset=0 / threads=12 / sliced_threads=0 / nr=0 / decimate=1 / interlaced=0 / bluray_compat=0 / constrained_intra=0 / bframes=0 / weightp=0 / keyint=30 / keyint_min=16 / scenecut=40 / intra_refresh=0 / rc_lookahead=30 / rc=abr / mbtree=1 / bitrate=800 / ratetol=1.0 / qcomp=0.60 / qpmin=10 / qpmax=51 / qpstep=4 / ip_ratio=1.40 / aq=1:1.00
Language : English
Encoded date : UTC 2014-01-07 03:17:46
Tagged date : UTC 2014-01-07 23:32:36
Audio
ID : 2
Format : AAC
Format/Info : Advanced Audio Codec
Format profile : LC
Codec ID : 40
Duration : 20mn 50s
Bit rate mode : Constant
Bit rate : 96.0 Kbps
Channel(s) : 2 channels
Channel positions : Front: L R
Sampling rate : 44.1 KHz
Compression mode : Lossy
Stream size : 14.3 MiB (10%)
Language : English
Encoded date : UTC 2014-01-07 03:17:46
Tagged date : UTC 2014-01-07 23:32:36
Качество: WEBRip
Формат: MP4
Видео кодек: H.264
Аудио кодек: AAC
Видео: MPEG4 Video (H264) 854x480 29.97fps 16:9 940 Kbps
Аудио: AAC 44100Hz stereo 95kbps 2сh

Скриншоты

[teatrix.ru].t13758.torrent 
Торрент: Зарегистрирован [ 2016-01-22 06:05 ] · 8554995D2617EB21F3334802C8276B493DB85E44

Скачать .torrent

Скачать

18 KB

Статус: проверено
Скачан: 0 раз
Размер: 1.68 GB
terms.php



Быстрый ответ

Имя:

      
Для отправки сообщений необходимо включить JavaScript
Показать сообщения:    

Текущее время: 10-Дек 13:53

Часовой пояс: UTC + 3


Вы можете начинать темы
Вы можете отвечать на сообщения
Вы не можете редактировать свои сообщения
Вы не можете удалять свои сообщения
Вы не можете голосовать в опросах
Вы не можете прикреплять файлы к сообщениям
Вы можете скачивать файлы