Небо Суели / Любовь на продажу / O Céu de Suely / Suely in the Sky (Карим Айнуз / Karim Ainouz) [2006, Бразилия, Германия, Португалия, Франция, Драма, DVDRip-AVC] + Sub Rus + Original Por


Статистика раздачи [Обновить пиров]
Размер:  978 MB   |    Зарегистрирован:  10 месяцев 18 дней   |    Скачан:  1 раз

Полного источника не было: 1 месяц 29 дней

 
   
 
 
 

[Цитировать]

Небо Суели / Любовь на продажу / O Céu de Suely / Suely in the Sky
Страна: Бразилия, Германия, Португалия, Франция
Жанр: Драма
Год выпуска: 2006
Продолжительность: 01:26:21
Перевод: Субтитры
Cубтитры: русские (creo140)
Оригинальная аудиодорожка: португальский
Режиссер: Карим Айнуз / Karim Ainouz
В ролях: Эрмила Гуэдес, Мария Менезес, Джоао Мигель, Джорджина Кастро, Клаудио Жаборанди, Марселия Карташу, Флавио Баураки, Матеус Виейра
Описание: Молодая девушка возвращается из Сан-Паулу, с малышом на руках. Она вернулась к своей бабушке, в ожидании скорого приезда своего мужа Матеуса. Но он не торопится возвращаться в маленький городок. И Эрмиле приходится самой решать все проблемы.
Доп. информация: http://www.kinopoisk.ru/film/267558/
http://www.imdb.com/title/tt0841175/
Сэмпл: http://multi-up.com/1085327
Качество видео: DVDRip-AVC
Формат видео: MKV
Видео: MPEG4 Video (H264) 720x364 (9:5) 23.976fps
Аудио: Dolby AC3 48000Hz stereo 192kbps
Формат субтитров: softsub (SRT)

Фрагмент субтитров

238
00:28:40,431 --> 00:28:43,628
Мы собираемся сегодня вечером,
но сделай лицо попроще...
239
00:28:44,302 --> 00:28:46,829
Потому что я не хочу,
чтобы вокруг были одни зануды!
240
00:28:46,852 --> 00:28:47,829
Ты слышишь меня?
241
00:28:48,039 --> 00:28:48,869
Ладно?
242
00:28:49,374 --> 00:28:51,638
Сколько?
- 5 реалов.
243
00:28:52,844 --> 00:28:54,778
Спасибо.
- Пожалуйста.
244
00:29:02,420 --> 00:29:05,218
Ты ничего не принёс мне,
кроме страдания!
245
00:29:07,692 --> 00:29:10,991
Поднимайся сюда, Эрмила!
246
00:29:13,398 --> 00:29:15,628
Поднимайся, девочка.
- Ты сошла с ума.
247
00:29:15,833 --> 00:29:17,425
Пойдем, поможешь мне!
248
00:29:23,875 --> 00:29:25,208
Я не буду больше плакать!
249
00:29:25,275 --> 00:29:27,208
Я не буду больше плакать!
250
00:29:27,412 --> 00:29:28,811
Я забуду тебя.
251
00:29:29,013 --> 00:29:31,675
Но я не буду больше плакать.
252
00:29:32,350 --> 00:29:34,079
Ты ничего не принёс мне,
кроме страдания!
253
00:29:59,477 --> 00:30:00,435
Достаточно караоке.
254
00:30:00,477 --> 00:30:02,935
Пойдём в Праса-да-Бандейра.
255
00:30:04,215 --> 00:30:05,910
Ты пойдёшь?
256
00:30:10,922 --> 00:30:14,016
Ты ненормальная!
- Ой! Моя рука!
257
00:33:34,992 --> 00:33:36,655
Позаботься о нём сегодня,
Эрмила.
258
00:33:36,692 --> 00:33:38,655
Мне нужно идти на работу.
259
00:34:25,276 --> 00:34:27,369
Привет.
- Слушаю вас?
260
00:34:27,612 --> 00:34:30,137
На какой самый дальний
рейс вы продаёте билеты?

MediaInfo

Format : Matroska
Format version : Version 2
File size : 977 MiB
Duration : 1h 26mn
Overall bit rate : 1 583 Kbps
Encoded date : UTC 2013-06-28 12:29:40
Writing application : mkvmerge v6.2.0 ('Promised Land') built on Apr 28 2013 09:37:03
Writing library : libebml v1.3.0 + libmatroska v1.4.0
Attachements : O Céu de Suely.sub
Video
ID : 1
Format : AVC
Format/Info : Advanced Video Codec
Format profile : High@L3.1
Format settings, CABAC : Yes
Format settings, ReFrames : 8 frames
Codec ID : V_MPEG4/ISO/AVC
Duration : 1h 26mn
Bit rate : 1 381 Kbps
Width : 720 pixels
Height : 364 pixels
Display aspect ratio : 16:9
Original display aspect ratio : 16:9
Frame rate mode : Constant
Frame rate : 23.976 fps
Color space : YUV
Chroma subsampling : 4:2:0
Bit depth : 8 bits
Scan type : Progressive
Bits/(Pixel*Frame) : 0.220
Stream size : 839 MiB (86%)
Writing library : x264 core 133 r2334 a3ac64b
Encoding settings : cabac=1 / ref=8 / deblock=1:0:0 / analyse=0x3:0x133 / me=umh / subme=9 / psy=1 / psy_rd=1.00:0.15 / mixed_ref=1 / me_range=28 / chroma_me=1 / trellis=2 / 8x8dct=1 / cqm=0 / deadzone=21,11 / fast_pskip=1 / chroma_qp_offset=-3 / threads=1 / lookahead_threads=1 / sliced_threads=0 / nr=0 / decimate=1 / interlaced=0 / bluray_compat=0 / constrained_intra=0 / bframes=5 / b_pyramid=2 / b_adapt=2 / b_bias=0 / direct=3 / weightb=1 / open_gop=0 / weightp=2 / keyint=240 / keyint_min=23 / scenecut=40 / intra_refresh=0 / rc_lookahead=60 / rc=2pass / mbtree=1 / bitrate=1381 / ratetol=3.0 / qcomp=0.60 / qpmin=0 / qpmax=69 / qpstep=4 / cplxblur=20.0 / qblur=0.5 / vbv_maxrate=14000 / vbv_bufsize=14000 / nal_hrd=none / ip_ratio=1.40 / aq=1:1.00
Language : English
Default : Yes
Forced : No
Audio
ID : 2
Format : AC-3
Format/Info : Audio Coding 3
Mode extension : CM (complete main)
Format settings, Endianness : Big
Codec ID : A_AC3
Duration : 1h 26mn
Bit rate mode : Constant
Bit rate : 192 Kbps
Channel(s) : 2 channels
Channel positions : Front: L R
Sampling rate : 48.0 KHz
Compression mode : Lossy
Delay relative to video : 23ms
Stream size : 119 MiB (12%)
Default : Yes
Forced : No
Text #1
ID : 3
Format : VobSub
Muxing mode : zlib
Codec ID : S_VOBSUB
Codec ID/Info : Picture based subtitle format used on DVDs
Language : English
Default : Yes
Forced : No
Text #2
ID : 4
Format : VobSub
Muxing mode : zlib
Codec ID : S_VOBSUB
Codec ID/Info : Picture based subtitle format used on DVDs
Language : Spanish
Default : No
Forced : No
Text #3
ID : 5
Format : VobSub
Muxing mode : zlib
Codec ID : S_VOBSUB
Codec ID/Info : Picture based subtitle format used on DVDs
Language : French
Default : No
Forced : No

Скриншот c названием фильма

[teatrix.ru].t13862.torrent 
Торрент: Зарегистрирован [ 2016-01-22 16:05 ] · CEE21BCAF4AD52575B8C568235FA40B44C9AF4A6

Скачать .torrent

Скачать

20 KB

Статус: проверено
Скачан: 1 раз
Размер: 978 MB
terms.php



Быстрый ответ

Имя:

      
Для отправки сообщений необходимо включить JavaScript
Показать сообщения:    

Текущее время: 10-Дек 04:13

Часовой пояс: UTC + 3


Вы можете начинать темы
Вы можете отвечать на сообщения
Вы не можете редактировать свои сообщения
Вы не можете удалять свои сообщения
Вы не можете голосовать в опросах
Вы не можете прикреплять файлы к сообщениям
Вы можете скачивать файлы