Calisthenics Kingz: Мощь отжиманий - сила человека / Calisthenics Kingz: Power From Push Ups Strenghth Of A Man [2011, Ghetto Workout / Street Workout / Уличный фитнес, DVDRip] (русские субтитры)


Статистика раздачи [Обновить пиров]
Размер:  838 MB   |    Зарегистрирован:  10 месяцев 18 дней   |    Скачан:  1 раз

Полного источника не было: 14 дней

Личеров:  2  [  0 KB/s  ]   Подробная статистика пиров
 
   
 
 
 

[Цитировать]

Calisthenics Kingz: Мощь отжиманий - сила человека / Calisthenics Kingz: Power From Push Ups Strenghth Of A Man
Страна: США
Тематика: Ghetto Workout / Street Workout / Уличный фитнес
Тип раздаваемого материала: Видеоурок
Продолжительность: 00:58:55
Год выпуска: 2011
Язык: Английский
Перевод: Субтитры
Язык субтитров: русские
Описание: Мощь отжиманий - сила человека - это взрывное и динамическое фитнес DVD. Признанный и уважаемый во всем мире эксперт по фитнесу CALISTHENICS KINGZ создал крутое, запоминающееся и образовательное видео. Хотя отжимание является одним из первых упражнений известных человеку, HIT, благодаря его отличным физическим данным, показывает виды отжиманий, многим до сих пор не известные. При этом он выглядит очень естественно и кажется, что каждое упражнение – предмет искусства. Также HIT рассказывает про преимущества отжиманий и предоставляет обучающие материалы для выполнения необычных видов отжиманий, благодаря которым его команда CALISTHENICS KINGZ стала популярной.
Этот DVD содержит информацию об отжиманиях, о том как делать стойку на руках, отжимания в стойке на руках, как делать «Изгиб тигра», какие мышцы при этом работают, как это влияет на ваш обмен веществ, а также несколько программ с отжиманиями, которые вы можете включить в свои тренировки. Этот диск принесет пользу любому, будь то мужчина или женщина, начинающий или гуру. Команда CALISTHENICS KINGZ обучила, вдохновила и мотивировала миллионы людей со всех уголков мира. Этим CALISTHENICS KINGZ, без тени сомнения доказывают, что они представляют новую эру фитнеса.
Качество: DVDRip
Формат: AVI
Видео кодек: XviD
Аудио кодек: MP3
Видео: Разрешение: 720x400; Кодек: XviD MPEG-4 codec; Кадров в секунду: 25,00; Битрейт: 1829 Kbps
Аудио: Кодек: MPEG 1 or 2 Audio Layer 3 (MP3); Количество каналов: 2; Частота дискретизации: 4800; Битрейт: 128 Кбит/сек

Скриншоты


Задняя сторона обложки

отчет MediaInfo

Общее
Полное имя : H:\Calisthenics Kingz Power From Push Ups.avi
Формат : AVI
Формат/Информация : Audio Video Interleave
Размер файла : 838 Мбайт
Продолжительность : 58 м.
Общий поток : 1989 Кбит/сек
Видео
Идентификатор : 0
Формат : MPEG-4 Visual
Профиль формата : Advanced Simple@L5
Параметр BVOP формата : 2
Параметр QPel формата : Нет
Параметр GMC формата : Без точки перехода
Параметр матрицы формата : Default (H.263)
Режим смешивания : Сжатый битовый поток
Идентификатор кодека : XVID
Идентификатор кодека/Подсказка : XviD
Продолжительность : 58 м.
Битрейт : 1816 Кбит/сек
Ширина : 720 пикс.
Высота : 400 пикс.
Соотношение сторон : 16:9
Частота кадров : 25,000 кадр/сек
Цветовое пространство : YUV
Подвыборка цветности : 4:2:0
Битовая глубина : 8 бит
Тип развёртки : Прогрессивная
Метод сжатия : С потерями
Бит/(Пиксели*Кадры) : 0.252
Размер потока : 765 Мбайт (91%)
Библиотека кодирования : XviD 63
Аудио
Идентификатор : 1
Формат : MPEG Audio
Версия формата : Version 1
Профиль формата : Layer 3
Идентификатор кодека : 55
Идентификатор кодека/Подсказка : MP3
Продолжительность : 58 м.
Вид битрейта : Постоянный
Битрейт : 160 Кбит/сек
Каналы : 2 канала
Частота : 48,0 КГц
Метод сжатия : С потерями
Размер потока : 67,4 Мбайт (8%)
Выравнивание : Разделение по промежуткам
Продолжительность промежутка : 24 мс. (0,60 видеокадр)
Библиотека кодирования : LAME3.98.2
[teatrix.ru].t13898.torrent 
Торрент: Зарегистрирован [ 2016-01-22 16:05 ] · 8F7A97A9D451A4F2716D9F550F313DB06642E499

Скачать .torrent

Скачать

17 KB

Статус: проверено
Скачан: 1 раз
Размер: 838 MB
terms.php



Быстрый ответ

Имя:

      
Для отправки сообщений необходимо включить JavaScript
Показать сообщения:    

Текущее время: 09-Дек 20:28

Часовой пояс: UTC + 3


Вы можете начинать темы
Вы можете отвечать на сообщения
Вы не можете редактировать свои сообщения
Вы не можете удалять свои сообщения
Вы не можете голосовать в опросах
Вы не можете прикреплять файлы к сообщениям
Вы можете скачивать файлы