Мария Никитина / Трайбл [2006, Трайбл, DVDRip, RUS] (МК)


Статистика раздачи [Обновить пиров]
Размер:  371 MB   |    Зарегистрирован:  10 месяцев 18 дней   |    Скачан:  1 раз

Полного источника не было: 1 месяц 11 дней

Личеров:  8  [  0 KB/s  ]   Подробная статистика пиров
 
   
 
 
 

[Цитировать]

Мария Никитина / Трайбл
Страна: Украина
Тематика: Трайбл
Тип раздаваемого материала: Мастер-класс
Продолжительность: 00:54:53
Год выпуска: 2006
Язык: Русский
Перевод: Не требуется
Описание: В этом мастер-классе разбираются базовые движения, даётся постановка в стиле "трайбл".
Доп. информация: Запись любительская
Качество : DVDRip
Формат: AVI
Видео кодек: XviD
Аудио кодек: MP3
Видео: 624x480 (1.30:1), 25 fps, XviD build 50 ~806 kbps avg, 0.11 bit/pixel
Аудио: 48 kHz, MPEG Layer 3, 2 ch, ~128.00 kbps avg

Отчет MediaInfo

General
Complete name : E:\Maria_Nikitina_Tribal.avi
Format : AVI
Format/Info : Audio Video Interleave
File size : 371 MiB
Duration : 54mn 53s
Overall bit rate : 944 Kbps
Writing application : VirtualDubMod 1.5.10.2 (build 2540/release)
Writing library : VirtualDubMod build 2540/release
Video
ID : 0
Format : MPEG-4 Visual
Format profile : Advanced Simple@L5
Format settings, BVOP : Yes
Format settings, QPel : No
Format settings, GMC : No warppoints
Format settings, Matrix : Default (MPEG)
Codec ID : XVID
Codec ID/Hint : XviD
Duration : 54mn 53s
Bit rate : 806 Kbps
Width : 624 pixels
Height : 480 pixels
Display aspect ratio : 1.300
Frame rate : 25.000 fps
Resolution : 8 bits
Colorimetry : 4:2:0
Scan type : Progressive
Bits/(Pixel*Frame) : 0.108
Stream size : 317 MiB (85%)
Writing library : XviD 1.2.1 (UTC 2008-12-04)
Audio
ID : 1
Format : MPEG Audio
Format version : Version 1
Format profile : Layer 3
Codec ID : 55
Codec ID/Hint : MP3
Duration : 54mn 53s
Bit rate mode : Constant
Bit rate : 128 Kbps
Channel(s) : 2 channels
Sampling rate : 48.0 KHz
Stream size : 50.3 MiB (14%)
Alignment : Aligned on interleaves
Interleave, duration : 40 ms (1.00 video frame)
Interleave, preload duration : 504 ms
Writing library : LAME3.98r
Encoding settings : -m s -V 4 -q 2 -lowpass 17 -b 128

Скриншоты


Скринлисты

[teatrix.ru].t13914.torrent 
Торрент: Зарегистрирован [ 2016-01-22 16:05 ] · 4E8332158A918477C8E89DA084FF751E07DF0EF1

Скачать .torrent

Скачать

15 KB

Статус: проверено
Скачан: 1 раз
Размер: 371 MB
terms.php



Быстрый ответ

Имя:

      
Для отправки сообщений необходимо включить JavaScript
Показать сообщения:    

Текущее время: 09-Дек 22:28

Часовой пояс: UTC + 3


Вы можете начинать темы
Вы можете отвечать на сообщения
Вы не можете редактировать свои сообщения
Вы не можете удалять свои сообщения
Вы не можете голосовать в опросах
Вы не можете прикреплять файлы к сообщениям
Вы можете скачивать файлы