Мария Крижановская / Методика обучения импровизации и растанцовка [2007 г., Импровизация, DVDRip, RUS] (МK)


Статистика раздачи [Обновить пиров]
Размер:  2.81 GB   |    Зарегистрирован:  10 месяцев 13 дней   |    Скачан:  0 раз

Полного источника не было: Никогда

Личеров:  8  [  0 KB/s  ]   Подробная статистика пиров
 
   
 
 
 

[Цитировать]

Мария Крижановская / Методика обучения импровизации и растанцовка
Год выпуска: 2007
Страна: Россия
Тематика: Импровизация
Тип раздаваемого материала: Мастер-класс
Продолжительность: 0:41:31, 0:19:58
Описание: Мария Крижановская (главный редактор журнала "Ориенталь") дает свою методику по обучению импровизации и растанцовке обучаемой группы.
Качество: DVDRip
Формат: MPEG
Видео кодек: MPEG2
Аудио кодек: AC-3
Видео: 720х480, 4:3, 5861 Kbps, 29.970 fps
Аудио: AC-3, 448 Kbps, 2 channels, 48.0 KHz

Отчет MediaInfo

General
Complete name : F:\Крижановская\VTS_01_0.mpg
Format : MPEG-PS
File size : 1.91 GiB
Duration : 41mn 33s
Overall bit rate : 6 570 Kbps
Video
ID : 224 (0xE0)
Format : MPEG Video
Format version : Version 2
Format profile : Main@Main
Format settings, BVOP : No
Format settings, Matrix : Default
Duration : 41mn 33s
Bit rate mode : Variable
Bit rate : 5 861 Kbps
Nominal bit rate : 9 000 Kbps
Width : 720 pixels
Height : 480 pixels
Display aspect ratio : 4:3
Frame rate : 29.970 fps
Standard : NTSC
Resolution : 8 bits
Colorimetry : 4:2:0
Scan type : Progressive
Bits/(Pixel*Frame) : 0.566
Stream size : 1.70 GiB (89%)
Audio
ID : 128 (0x80)
Format : AC-3
Format/Info : Audio Coding 3
Duration : 41mn 33s
Bit rate mode : Constant
Bit rate : 448 Kbps
Channel(s) : 2 channels
Channel positions : L R
Sampling rate : 48.0 KHz
Stream size : 133 MiB (7%)

Скриншоты

Скринлисты

[teatrix.ru].t13916.torrent 
Торрент: Зарегистрирован [ 2016-01-22 16:05 ] · DE059CCEB9D529D0F3C88D246AAEF69BED425B48

Скачать .torrent

Скачать

15 KB

Статус: проверено
Скачан: 0 раз
Размер: 2.81 GB
terms.php



Быстрый ответ

Имя:

      
Для отправки сообщений необходимо включить JavaScript
Показать сообщения:    

Текущее время: 04-Дек 19:18

Часовой пояс: UTC + 3


Вы можете начинать темы
Вы можете отвечать на сообщения
Вы не можете редактировать свои сообщения
Вы не можете удалять свои сообщения
Вы не можете голосовать в опросах
Вы не можете прикреплять файлы к сообщениям
Вы можете скачивать файлы