Amir Thaleb / Танцевальная разминка в стиле Oriental / Dancing warm-up in style Oriental [2007, Разминка, DVDRip] (МK)


Статистика раздачи [Обновить пиров]
Размер:  100 MB   |    Зарегистрирован:  10 месяцев 11 дней   |    Скачан:  1 раз

Полного источника не было: 2 месяца 20 дней

Личеров:  8  [  0 KB/s  ]   Подробная статистика пиров
 
   
 
 
 

[Цитировать]

Amir Thaleb / Танцевальная разминка в стиле Oriental / Dancing warm-up in style Oriental
Страна: Россия
Тематика: Разминка
Тип раздаваемого материала: Мастер-класс
Продолжительность: 00:08:33
Год выпуска: 2007
Язык: Отсутствует
Перевод: Не требуется
Описание: Мастер-классы проходили в рамках "Oasis festival" 18 - 21 октября 2007 года.
Амир Таалеб дает разогрев, разминку (упражнения, подготавливающие тело к танцу, отдельные движения, используемые в Belly Dance). В конце разминки - импровизационное исполнение под известную и популярную музыку.
Качество : DVDRip
Формат: AVI
Видео кодек: XviD
Аудио кодек: MP3
Видео: 640x480 (1.33:1), 25 fps, XviD build 50 ~1492 kbps avg, 0.19 bit/pixel
Аудио: 48 kHz, MPEG Layer 3, 2 ch, ~128.00 kbps avg

Отчет MediaInfo

General
Complete name : E:\Amir_Thaleb_Dancing_warm-up_in_style_Oriental.avi
Format : AVI
Format/Info : Audio Video Interleave
File size : 99.7 MiB
Duration : 8mn 33s
Overall bit rate : 1 631 Kbps
Writing application : VirtualDubMod 1.5.10.2 (build 2540/release)
Writing library : VirtualDubMod build 2540/release
Video
ID : 0
Format : MPEG-4 Visual
Format profile : Advanced Simple@L5
Format settings, BVOP : Yes
Format settings, QPel : No
Format settings, GMC : No warppoints
Format settings, Matrix : Default (MPEG)
Codec ID : XVID
Codec ID/Hint : XviD
Duration : 8mn 33s
Bit rate : 1 493 Kbps
Width : 640 pixels
Height : 480 pixels
Display aspect ratio : 4:3
Frame rate : 25.000 fps
Resolution : 8 bits
Colorimetry : 4:2:0
Scan type : Progressive
Bits/(Pixel*Frame) : 0.194
Stream size : 91.3 MiB (92%)
Writing library : XviD 1.2.1 (UTC 2008-12-04)
Audio
ID : 1
Format : MPEG Audio
Format version : Version 1
Format profile : Layer 3
Codec ID : 55
Codec ID/Hint : MP3
Duration : 8mn 33s
Bit rate mode : Constant
Bit rate : 128 Kbps
Channel(s) : 2 channels
Sampling rate : 48.0 KHz
Stream size : 7.83 MiB (8%)
Alignment : Aligned on interleaves
Interleave, duration : 40 ms (1.00 video frame)
Interleave, preload duration : 504 ms
Writing library : LAME3.98r
Encoding settings : -m s -V 4 -q 2 -lowpass 17 -b 128

Скриншоты


Скринлисты

Контрольные суммы / File Hashes

CRC32: ACB1CEEA
MD5: 8287AA59EEB3F215A574BE548E19C1C5
SHA-1: 9FCD41AAD4B053D7732F33F567CBFAAF149769F5
[teatrix.ru].t13917.torrent 
Торрент: Зарегистрирован [ 2016-01-22 16:05 ] · C09F1F5EA6C3D1946F2E94CFAA12F306C8CA7DCB

Скачать .torrent

Скачать

16 KB

Статус: проверено
Скачан: 1 раз
Размер: 100 MB
terms.php



Быстрый ответ

Имя:

      
Для отправки сообщений необходимо включить JavaScript
Показать сообщения:    

Текущее время: 02-Дек 23:05

Часовой пояс: UTC + 3


Вы можете начинать темы
Вы можете отвечать на сообщения
Вы не можете редактировать свои сообщения
Вы не можете удалять свои сообщения
Вы не можете голосовать в опросах
Вы не можете прикреплять файлы к сообщениям
Вы можете скачивать файлы