Елена Баскакова / Движения с замками и наложения [2008, Трайбл, DVDRip, RUS] (МК)


Статистика раздачи [Обновить пиров]
Размер:  742 MB   |    Зарегистрирован:  10 месяцев 16 дней   |    Скачан:  0 раз

Полного источника не было: Никогда

Личеров:  8  [  0 KB/s  ]   Подробная статистика пиров
 
   
 
 
 

[Цитировать]

Елена Баскакова / Движения с замками и наложения
Страна: Россия г. Москва
Тематика: Трайбл
Тип раздаваемого материала: Мастер-класс
Продолжительность: 01:37:22
Год выпуска: 2008
Язык: Русский
Перевод: Не требуется
Описание: Мастер класс Елены Баскаковой по трайблу "Движения с замками и наложения".
Елена Баскакова (Латвия) - руководитель группы "Мистик Снейкс".
Изучение стиля Tribal Fusion начала у Ирины Комаровской в ее первый приезд с МК в Россию, а совершенствовала стиль у таких знаменитых танцовщиц, как Фредерика Давид, Рейчел Брайс (и все из "Индиго"), Кихара, Ками, Мория...
Запись с живого мастер-класса в Москве.
Качество : DVDRip
Формат: AVI
Видео кодек: XviD
Аудио кодек: MP3
Видео: 640x480 (1.33:1), 25 fps, XviD build 50 ~927 kbps avg, 0.12 bit/pixel
Аудио: 48 kHz, MPEG Layer 3, 2 ch, ~128.00 kbps avg

Отчет MediaInfo

General
Complete name : E:\Elena_Baskakova_Dvizhenija_s_zamkami_i_nalozhenija.avi
Format : AVI
Format/Info : Audio Video Interleave
File size : 742 MiB
Duration : 1h 37mn
Overall bit rate : 1 065 Kbps
Writing application : VirtualDubMod 1.5.10.2 (build 2540/release)
Writing library : VirtualDubMod build 2540/release
Video
ID : 0
Format : MPEG-4 Visual
Format profile : Advanced Simple@L5
Format settings, BVOP : Yes
Format settings, QPel : No
Format settings, GMC : No warppoints
Format settings, Matrix : Default (MPEG)
Codec ID : XVID
Codec ID/Hint : XviD
Duration : 1h 37mn
Bit rate : 928 Kbps
Width : 640 pixels
Height : 480 pixels
Display aspect ratio : 4:3
Frame rate : 25.000 fps
Resolution : 8 bits
Colorimetry : 4:2:0
Scan type : Progressive
Bits/(Pixel*Frame) : 0.121
Stream size : 646 MiB (87%)
Writing library : XviD 1.2.1 (UTC 2008-12-04)
Audio
ID : 1
Format : MPEG Audio
Format version : Version 1
Format profile : Layer 3
Codec ID : 55
Codec ID/Hint : MP3
Duration : 1h 37mn
Bit rate mode : Constant
Bit rate : 128 Kbps
Channel(s) : 2 channels
Sampling rate : 48.0 KHz
Stream size : 89.2 MiB (12%)
Alignment : Aligned on interleaves
Interleave, duration : 40 ms (1.00 video frame)
Interleave, preload duration : 504 ms
Writing library : LAME3.98r
Encoding settings : -m s -V 4 -q 2 -lowpass 17 -b 128

Скриншоты

Скринлисты

Контрольные суммы / File Hashes

CRC32: 7397A16C
MD5: A841D3BD4F5E95929718BE1DD2A7676A
SHA-1: 5AB45C74F5F60EC4BC32756748F273BC8A1D0036
[teatrix.ru].t13919.torrent 
Торрент: Зарегистрирован [ 2016-01-22 16:05 ] · 084CAB52C971FFF8D99F5333FEE50F116B3A2858

Скачать .torrent

Скачать

15 KB

Статус: проверено
Скачан: 0 раз
Размер: 742 MB
terms.php



Быстрый ответ

Имя:

      
Для отправки сообщений необходимо включить JavaScript
Показать сообщения:    

Текущее время: 08-Дек 03:14

Часовой пояс: UTC + 3


Вы можете начинать темы
Вы можете отвечать на сообщения
Вы не можете редактировать свои сообщения
Вы не можете удалять свои сообщения
Вы не можете голосовать в опросах
Вы не можете прикреплять файлы к сообщениям
Вы можете скачивать файлы