Светлана Баева / Секреты мастерства в преподавании базовых техник арабского танца [2007 г., Танец живота, DVDRip] (МК)


Статистика раздачи [Обновить пиров]
Размер:  701 MB   |    Зарегистрирован:  10 месяцев 16 дней   |    Скачан:  0 раз

Полного источника не было: Никогда

Личеров:  8  [  0 KB/s  ]   Подробная статистика пиров
 
   
 
 
 

[Цитировать]

Светлана Баева / Секреты мастерства в преподавании базовых техник арабского танца
Год выпуска: 2007
Страна: Россия
Жанр: Танец живота
Тип раздаваемого материала: Мастер-класс
Продолжительность: 01:38:54
Описание: Разбирается базовая техника арабского танца.
Качество: DVDRip
Формат: AVI
Видео кодек: XviD build 50
Аудио кодек: MPEG Layer 3
Видео: 640x480 (1.33:1), 25 fps, XviD build 50 ~852 kbps avg, 0.11 bit/pixel
Аудио: 48 kHz, MPEG Layer 3, 2 ch, ~128.00 kbps avg

Танцевальное резюме: Светлана Владимировна Баева

Баева С.В. танцевала с 3 лет. В 16 лет начала профессионально заниматься с педагогами. Брала частные уроки у профессора ГИТИС Тамары Степановны Ткаченко. В ГИТИСе общалась с танцовщиками из Египта, Туниса, Кубы, Индии. На сцене 30 лет. В 1961 году на Московском фестивале молодежи встретилась с Махмудом Реда и Фаридой Фахми.

Отчет MediaInfo

General
Complete name : E:\Baeva.avi
Format : AVI
Format/Info : Audio Video Interleave
File size : 701 MiB
Duration : 1h 38mn
Overall bit rate : 991 Kbps
Writing application : VirtualDubMod 1.5.10.2 (build 2540/release)
Writing library : VirtualDubMod build 2540/release
Video
ID : 0
Format : MPEG-4 Visual
Format profile : Advanced Simple@L5
Format settings, BVOP : Yes
Format settings, QPel : No
Format settings, GMC : No warppoints
Format settings, Matrix : Default (MPEG)
Codec ID : XVID
Codec ID/Hint : XviD
Duration : 1h 38mn
Bit rate : 853 Kbps
Width : 640 pixels
Height : 480 pixels
Display aspect ratio : 4:3
Frame rate : 25.000 fps
Resolution : 8 bits
Colorimetry : 4:2:0
Scan type : Progressive
Bits/(Pixel*Frame) : 0.111
Stream size : 603 MiB (86%)
Writing library : XviD 1.2.1 (UTC 2008-12-04)
Audio
ID : 1
Format : MPEG Audio
Format version : Version 1
Format profile : Layer 3
Codec ID : 55
Codec ID/Hint : MP3
Duration : 1h 38mn
Bit rate mode : Constant
Bit rate : 128 Kbps
Channel(s) : 2 channels
Sampling rate : 48.0 KHz
Stream size : 90.6 MiB (13%)
Alignment : Aligned on interleaves
Interleave, duration : 40 ms (1.00 video frame)
Interleave, preload duration : 504 ms
Writing library : LAME3.98r
Encoding settings : -m s -V 4 -q 2 -lowpass 17 -b 128

Скриншоты


Скринлисты

[teatrix.ru].t13920.torrent 
Торрент: Зарегистрирован [ 2016-01-22 16:05 ] · A038628D962FC5F9B960009BD3405D616F708FCE

Скачать .torrent

Скачать

14 KB

Статус: проверено
Скачан: 0 раз
Размер: 701 MB
terms.php



Быстрый ответ

Имя:

      
Для отправки сообщений необходимо включить JavaScript
Показать сообщения:    

Текущее время: 07-Дек 19:21

Часовой пояс: UTC + 3


Вы можете начинать темы
Вы можете отвечать на сообщения
Вы не можете редактировать свои сообщения
Вы не можете удалять свои сообщения
Вы не можете голосовать в опросах
Вы не можете прикреплять файлы к сообщениям
Вы можете скачивать файлы