Totally Turkish. Lively Turkish Oriental Belly Dance Choreography. Starring Ruby [2010, обучaющее видео, DVD5, ENG] (Видеоурок)


Статистика раздачи [Обновить пиров]
Размер:  4.3 GB   |    Зарегистрирован:  1 год   |    Скачан:  0 раз

Полного источника не было: Никогда

Личеров:  4  [  0 KB/s  ]   Подробная статистика пиров
 
   
 
 
 

[Цитировать]

Totally Turkish. Lively Turkish Oriental Belly Dance Choreography. Starring Ruby
Страна: USA
Тематика: обучaющее видео
Тип раздаваемого материала: Видеоурок
Продолжительность: 1:54:56
Год выпуска: 2010
Язык: Английский
Перевод: Отсутствует
Описание: Turkish Oriental belly dance is fast, furious and full of spunk. It is defined by strong movements, bold hair tosses, kicks, spins and sassy isolations. With deep roots in Turkish Romani dance, Turkish Oriental stage dancing carries an energetic and raw quality. In contrast with the more ballet-infused Egyptian stage dancing, movements are big, bold and energetically outward.
Totally Turkish begins with a flow warm up, then moves into technique sections on steps, turns and saucy isolations. From there we begin breaking down the choreography into bite-sizes sections and drills. We then sequence the combinations into a full choreography to a fast and fun version of a traditional piece of Turkish music called Benefese.
In this DVD, a basic knowledge of belly dance and finger cymbals is assumed. However, the choreography is broken down into small pieces that can easily be drilled and learned with or without finger cymbals.
This choreography is full of fast steps, quick turns, kicks, and sass! For seasoned dancers the choreography is fast, challenging and fun. But don t worry if you are just getting started in belly dance the sections are broken down slowly and drilled extensively for enhanced learning.
Extras include a finger cymbal choreography, a Romani dance tutorial, and a costumed performance. The Romani tutorial includes a breakdown of the Romani (or Gypsy) 9/8 rhythm with examples of posturing, steps, and gestures.
Качество : DVD5
Формат: DVD video
Видео кодек: MPEG video
Аудио кодек: AC3
Видео: MPEG, 29.970 fps, 720x480 pixels, 4734 Kbps, NTSC 4:3
Аудио: AC3, 192 kbps, 48.0 KHz, 2ch

Отчет MediaInfo

General
Complete name : G:\TURKISH_REDO\VIDEO_TS\VTS_02_5.VOB
Format : MPEG-PS
File size : 265 MiB
Duration : 7mn 21s
Overall bit rate : 5 026 Kbps
Video
ID : 224 (0xE0)
Format : MPEG Video
Format version : Version 2
Format profile : Main@Main
Format settings, BVOP : Yes
Format settings, Matrix : Default
Format settings, GOP : M=3, N=15
Duration : 7mn 21s
Bit rate mode : Variable
Bit rate : 4 734 Kbps
Nominal bit rate : 7 500 Kbps
Width : 720 pixels
Height : 480 pixels
Display aspect ratio : 4:3
Frame rate : 29.970 fps
Standard : NTSC
Color space : YUV
Chroma subsampling : 4:2:0
Bit depth : 8 bits
Scan type : Interlaced
Scan order : Bottom Field First
Bits/(Pixel*Frame) : 0.457
Stream size : 249 MiB (94%)
Audio
ID : 128 (0x80)
Format : AC-3
Format/Info : Audio Coding 3
Mode extension : CM (complete main)
Duration : 7mn 21s
Bit rate mode : Constant
Bit rate : 192 Kbps
Channel(s) : 2 channels
Channel positions : Front: L R
Sampling rate : 48.0 KHz
Bit depth : 16 bits
Video delay : -501ms
Stream size : 10.1 MiB (4%)

Скриншоты




[teatrix.ru].t13926.torrent 
Торрент: Зарегистрирован [ 2016-01-22 16:05 ] · B3B8B22AA7024D4D955F2E4438147419CBB2519D

Скачать .torrent

Скачать

23 KB

Статус: проверено
Скачан: 0 раз
Размер: 4.3 GB
terms.php



Быстрый ответ

Имя:

      
Для отправки сообщений необходимо включить JavaScript
Показать сообщения:    

Текущее время: 24-Янв 00:01

Часовой пояс: UTC + 3


Вы можете начинать темы
Вы можете отвечать на сообщения
Вы не можете редактировать свои сообщения
Вы не можете удалять свои сообщения
Вы не можете голосовать в опросах
Вы не можете прикреплять файлы к сообщениям
Вы можете скачивать файлы