Хаят ель Хельва "Бразильские шимми" / Hayat el Helwa "Brazilian Shimmies" [мастер-класс, ENG] (Видеоурок)


Статистика раздачи [Обновить пиров]
Размер:  548 MB   |    Зарегистрирован:  10 месяцев 12 дней   |    Скачан:  0 раз

Полного источника не было: Никогда

Личеров:  2  [  0 KB/s  ]   Подробная статистика пиров
 
   
 
 
 

[Цитировать]

Хаят ель Хельва "Бразильские шимми" / Hayat el Helwa "Brazilian Shimmies"
Страна: Египет
Тематика: мастер-класс
Тип раздаваемого материала: Видеоурок
Продолжительность: 0:25:37
Язык: Английский
Перевод: Отсутствует
Описание: Мастер-класс по бразильским шимми будет полезен всем тем, кто хочет улучшить качество своих шимми и/или добавить новые их виды в свой обиход. Объяснено достаточно понятно
Качество: DVDRip
Формат: MOV
Видео кодек: Sorenson Media Video 3
Аудио кодек: QDesign Music 2
Видео: 640х480, 4:3, 2 940 Kbps, 15.000 fps
Аудио: 384 Kbps, 2 channels, 48.0 KHz

Технические данные

Format : MPEG-4
Format profile : QuickTime
Codec ID : qt
File size : 548 MiB
Duration : 25mn 37s
Overall bit rate : 2 989 Kbps
Encoded date : UTC 2010-08-22 17:14:58
Tagged date : UTC 2010-08-22 17:15:32
Writing library : Apple QuickTime
Video
ID : 2
Format : Sorenson 3
Codec ID : SVQ3
Codec ID/Info : Sorenson Media Video 3 (Apple QuickTime 5)
Duration : 25mn 37s
Bit rate mode : Variable
Bit rate : 2 940 Kbps
Width : 640 pixels
Height : 480 pixels
Display aspect ratio : 4:3
Frame rate mode : Constant
Frame rate : 15.000 fps
Bits/(Pixel*Frame) : 0.638
Stream size : 539 MiB (98%)
Language : English
Encoded date : UTC 2010-08-22 16:54:26
Tagged date : UTC 2010-08-22 17:15:32
Audio
ID : 1
Format : Qdesign 2
Codec ID : QDM2
Codec ID/Info : QDesign Music 2
Duration : 25mn 37s
Bit rate mode : Constant
Bit rate : 384 Kbps
Channel(s) : 2 channels
Sampling rate : 48.0 KHz
Bit depth : 16 bits
Stream size : 70.4 MiB (13%)
Language : English
Encoded date : UTC 2010-08-22 16:50:48
Tagged date : UTC 2010-08-22 17:15:32

Скриншоты



[teatrix.ru].t13936.torrent 
Торрент: Зарегистрирован [ 2016-01-22 16:05 ] · 0736B1CE58A97EFFD6413298F471EE807255E404

Скачать .torrent

Скачать

11 KB

Статус: проверено
Скачан: 0 раз
Размер: 548 MB
terms.php



Быстрый ответ

Имя:

      
Для отправки сообщений необходимо включить JavaScript
Показать сообщения:    

Текущее время: 04-Дек 06:52

Часовой пояс: UTC + 3


Вы можете начинать темы
Вы можете отвечать на сообщения
Вы не можете редактировать свои сообщения
Вы не можете удалять свои сообщения
Вы не можете голосовать в опросах
Вы не можете прикреплять файлы к сообщениям
Вы можете скачивать файлы