Валерия Путицкая / Tabla Solo [2007 г., Танец живота, DVDRip, RUS]


Статистика раздачи [Обновить пиров]
Размер:  744 MB   |    Зарегистрирован:  10 месяцев 19 дней   |    Скачан:  0 раз

Полного источника не было: Никогда

Личеров:  2  [  0 KB/s  ]   Подробная статистика пиров
 
   
 
 
 

[Цитировать]

Валерия Путицкая / Tabla Solo
Год выпуска: 2007
Страна: Россия
Производитель: Dance Video
Жанр: Танец живота
Продолжительность: 00:48:44.000
Язык: Русский
Описание: Всемирная Танцевальная Олимпиада. 5-й Международный конгресс по Belly Dance. Москва. Крокус-Экспо. Май 2007.
Мастер-класс Валерия Путицкая.
Разбирается постановка "Tabla Solo".
Качество: DVDRip
Формат: AVI
Видео кодек: XviD build 50
Аудио кодек: MPEG Layer 3
Видео: 640x360 (1.78:1), 25 fps, XviD build 50 ~1984 kbps avg, 0.34 bit/pixel
Аудио: 48 kHz, MPEG Layer 3, 2 ch, ~128.00 kbps avg-Музыка
Аудио кодек: MP3
Тип рипа: tracks
Битрейт аудио: 160 Kbps
Продолжительность: 00:03:50

Танцевальное резюме: Валерия Путицкая

Валерия Путицкая.
Чемпионка Европы 2004 год (Финляндия)
Чемпионка Санкт-Петербурга 2006 год.
Чемпионка Мира 2005 год (Москва).
Серебряный призер Чемпионата Мира 2006 год (Москва).
Бронзовый призер Чемпионата Мира 2007 год (Москва).
Профессиональный исполнитель bellydance, судья 2 категории (ОРТО),
руководитель студии танца ValeryDanceLab (VDL)
C 9 лет занималась в ансамбле восточного танца "Фирюза" руководитель Феруза Абинова (город Сургут).
Народные (харезм, узбекские, цыганские и др.), эстрадные, брейк данс.
С 2002 г. участвует во Всероссийском конкурсе по танцу живота (ОРТО).
Принимает участие в международных фестивалях
Nile Group (Египет), Ahlah Wa Sahlan (Египет).
Стажировка у Мадам Raqia Hasan (Египет) 2006год.
Высшее образование (СПБГУ)
Факультет политологии и философии
Культуролог Востока
Преподаватели:
Россия: Феруза Абинова (танцевальная мама), Мохсира, Татьяна Павловна Дорош, Nour (Татьяна Федяева), Алевтина Суворова.
Зарубежные: Ракия Хассан, Махмуд Реда, Айда Нур, Кхалед Махмуд, Вирджиния Мендес, Йосри Шериф, Ахмед Фекри, Габи Шиба Эхаб Гад Аллах.
Ведущая программы BellyDance с Валерией Путицкой на кабельном канале Тонус ТВ.

Отчет MediaInfo

Видео
General
Complete name : D:\Валерия Путицкая «Tabla Solo»\Валерия Путицкая - Tabla Solo.avi
Format : AVI
Format/Info : Audio Video Interleave
File size : 740 MiB
Duration : 48mn 44s
Overall bit rate : 2 123 Kbps
Writing application : VirtualDubMod 1.5.10.2 (build 2540/release)
Writing library : VirtualDubMod build 2540/release
Video
ID : 0
Format : MPEG-4 Visual
Format profile : AdvancedSimple@L5
Format settings, BVOP : Yes
Format settings, QPel : No
Format settings, GMC : No warppoints
Format settings, Matrix : Default (MPEG)
Codec ID : XVID
Codec ID/Hint : XviD
Duration : 48mn 44s
Bit rate : 1 985 Kbps
Width : 640 pixels
Height : 360 pixels
Display aspect ratio : 16:9
Frame rate : 25.000 fps
Resolution : 24 bits
Colorimetry : 4:2:0
Scan type : Progressive
Bits/(Pixel*Frame) : 0.345
Stream size : 692 MiB (94%)
Writing library : XviD 1.2.1 (UTC 2008-12-04)
Audio
ID : 1
Format : MPEG Audio
Format version : Version 1
Format profile : Layer 3
Codec ID : 55
Codec ID/Hint : MP3
Duration : 48mn 43s
Bit rate mode : Constant
Bit rate : 128 Kbps
Channel(s) : 2 channels
Sampling rate : 48.0 KHz
Resolution : 16 bits
Stream size : 44.6 MiB (6%)
Alignment : Aligned on interleaves
Interleave, duration : 40 ms (1.00 video frame)
Interleave, preload duration : 504 ms
Writing library : LAME3.98r
Encoding settings : -m s -V 4 -q 2 -lowpass 17 -b 128--Музыка
General
Complete name : D:\Валерия Путицкая «Tabla Solo»\Музыка.mp3
Format : MPEG Audio
File size : 4.40 MiB
Duration : 3mn 50s
Overall bit rate : 160 Kbps
Writing library : LAME3.97
Audio
Format : MPEG Audio
Format version : Version 1
Format profile : Layer 3
Duration : 3mn 50s
Bit rate mode : Constant
Bit rate : 160 Kbps
Channel(s) : 2 channels
Sampling rate : 44.1 KHz
Resolution : 16 bits
Stream size : 4.40 MiB (100%)
Writing library : LAME3.97
Encoding settings : -m j -V 4 -q 5 -lowpass 17.5 -b

Скриншоты


[teatrix.ru].t13938.torrent 
Торрент: Зарегистрирован [ 2016-01-22 16:05 ] · 721CE994AA670BBFAEE8B11C52EA375CC1A08DC5

Скачать .torrent

Скачать

15 KB

Статус: проверено
Скачан: 0 раз
Размер: 744 MB
terms.php



Быстрый ответ

Имя:

      
Для отправки сообщений необходимо включить JavaScript
Показать сообщения:    

Текущее время: 10-Дек 23:26

Часовой пояс: UTC + 3


Вы можете начинать темы
Вы можете отвечать на сообщения
Вы не можете редактировать свои сообщения
Вы не можете удалять свои сообщения
Вы не можете голосовать в опросах
Вы не можете прикреплять файлы к сообщениям
Вы можете скачивать файлы