Дорош Т.П. Обучающая сессия по восточным танцам. Часть 1: «Детский беллиданс» [2009, DVDRip, RUS] (Видеоурок)


Статистика раздачи [Обновить пиров]
Размер:  746 MB   |    Зарегистрирован:  10 месяцев 12 дней   |    Скачан:  0 раз

Полного источника не было: Никогда

Личеров:  3  [  0 KB/s  ]   Подробная статистика пиров
 
   
 
 
 

[Цитировать]

Дорош Т.П. Обучающая сессия по восточным танцам. Часть 1: «Детский беллиданс»
Страна: Россия
Тематика: Детский беллиданс
Тип раздаваемого материала: Видеоурок
Продолжительность: 02:22:06.440
Год выпуска: 2009
Язык: Русский
Перевод: Не требуется
Описание: «Детский беллиданс: Детский беллиданс и здоровье ребенка. Особенности работы с детьми. Особенности построения номера. Выбор музыки. Постановка».
В этом мастер-классе Татьяна Павловна делится своими наблюдениями, авторскими разработками, методиками работы с детьми, специальными тренировочными упражнениями для детей. Ценный материал для тех, кто начинает или давно работает с детьми.
Качество : DVDRip
Формат: AVI
Видео кодек: XviD
Аудио кодек: MP3
Видео: 640x480 (1.33:1), 25 fps, XviD build 50 ~595 kbps avg, 0.08 bit/pixel
Аудио: 48 kHz, MPEG Layer 3, 2 ch, ~128.00 kbps avg

Отчет MediaInfo

General
Complete name : D:\Dorosh - Detskij bellydance.avi
Format : AVI
Format/Info : Audio Video Interleave
File size : 746 MiB
Duration : 2h 22mn
Overall bit rate : 734 Kbps
Writing application : VirtualDubMod 1.5.10.2 (build 2540/release)
Writing library : VirtualDubMod build 2540/release
Video
ID : 0
Format : MPEG-4 Visual
Format profile : AdvancedSimple@L5
Format settings, BVOP : Yes
Format settings, QPel : No
Format settings, GMC : No warppoints
Format settings, Matrix : Default (MPEG)
Codec ID : XVID
Codec ID/Hint : XviD
Duration : 2h 22mn
Bit rate : 596 Kbps
Width : 640 pixels
Height : 480 pixels
Display aspect ratio : 4:3
Frame rate : 25.000 fps
Resolution : 24 bits
Colorimetry : 4:2:0
Scan type : Progressive
Bits/(Pixel*Frame) : 0.078
Stream size : 606 MiB (81%)
Writing library : XviD 1.2.1 (UTC 2008-12-04)
Audio
ID : 1
Format : MPEG Audio
Format version : Version 1
Format profile : Layer 3
Codec ID : 55
Codec ID/Hint : MP3
Duration : 2h 22mn
Bit rate mode : Constant
Bit rate : 128 Kbps
Channel(s) : 2 channels
Sampling rate : 48.0 KHz
Resolution : 16 bits
Stream size : 130 MiB (17%)
Alignment : Aligned on interleaves
Interleave, duration : 40 ms (1.00 video frame)
Interleave, preload duration : 504 ms
Writing library : LAME3.98r
Encoding settings : -m s -V 4 -q 2 -lowpass 17 -b 128

Скриншоты


[teatrix.ru].t13939.torrent 
Торрент: Зарегистрирован [ 2016-01-22 16:05 ] · 26AADE56EFBB431D8D4494E1729B9C2DBDC27E83

Скачать .torrent

Скачать

15 KB

Статус: проверено
Скачан: 0 раз
Размер: 746 MB
terms.php



Быстрый ответ

Имя:

      
Для отправки сообщений необходимо включить JavaScript
Показать сообщения:    

Текущее время: 04-Дек 15:18

Часовой пояс: UTC + 3


Вы можете начинать темы
Вы можете отвечать на сообщения
Вы не можете редактировать свои сообщения
Вы не можете удалять свои сообщения
Вы не можете голосовать в опросах
Вы не можете прикреплять файлы к сообщениям
Вы можете скачивать файлы