Poi Spinning for Beginners / Veil Poi for Bellydancers with Michelle Joyce [2007 г., обучение, шоу-беллиданс, DVDRip, ENG]


Статистика раздачи [Обновить пиров]
Размер:  681 MB   |    Зарегистрирован:  11 месяцев 26 дней   |    Скачан:  0 раз

Полного источника не было: Никогда

Личеров:  2  [  0 KB/s  ]   Подробная статистика пиров
 
   
 
 
 

[Цитировать]

Poi Spinning for Beginners / Veil Poi for Bellydancers with Michelle Joyce
Год выпуска: 2007
Страна: USA
Язык: английский
Жанр: обучение, шоу-беллиданс
Продолжительность: 0:32:12
Описание: Хорошая, качественная обучалка, как приручить пои. Очень полезна тем, кто хочет внести что-то новое в свои выступления. Каждый элемент показывается и разжевывается очень подробно. Советую
трейлер
http://www.youtube.com/watch?v=qUloxA41Qt8&feature=related
кусочек танца
http://www.youtube.com/watch?v=ulxXo8hPv7I
Originally performed by the Maori in New Zealand, poi and fire dancing are now seen at festivals, raves, concerts and nightclubs around the world. Whether you are performing on a big stage or simply dancing for yourself, poi will add a hypnotic and colorful dynamic.
This DVD is a comprehensive introduction to poi. Because it was filmed in front of mirrors in a dance studio, you can see each move in its entirety from both the front and the back. Each trick is broken down in easy-to-understand segments, and slow motion video takes the mystery out of the moves. You will learn poi dance combinations that range from simple to advanced and will be introduced to belly dance veil poi.
Belly dance veil poi was invented by Dana Beaufait and is performed widely by the Bellydance Superstars and Aziza. The veil poi segment of this DVD demonstrates how the poi moves can be incorporated with silk veils for a dynamic veil dance!
Качество: DVDRip

Технические данные

General
Format : MPEG-4
Format profile : QuickTime
Codec ID : qt
File size : 681 MiB
Duration : 32mn 12s
Overall bit rate : 2 956 Kbps
Encoded date : UTC 2010-08-07 09:14:45
Tagged date : UTC 2010-08-07 09:15:52
Writing library : Apple QuickTime
Video
ID : 2
Format : Sorenson 3
Codec ID : SVQ3
Codec ID/Info : Sorenson Media Video 3 (Apple QuickTime 5)
Duration : 32mn 12s
Bit rate mode : Variable
Bit rate : 2 907 Kbps
Width : 720 pixels
Height : 486 pixels
Display aspect ratio : 3:2
Frame rate mode : Constant
Frame rate : 15.000 fps
Bits/(Pixel*Frame) : 0.554
Stream size : 669 MiB (98%)
Language : English
Encoded date : UTC 2010-08-07 08:46:40
Tagged date : UTC 2010-08-07 09:15:53
Audio
ID : 1
Format : Qdesign 2
Codec ID : QDM2
Codec ID/Info : QDesign Music 2
Duration : 32mn 12s
Bit rate mode : Constant
Bit rate : 384 Kbps
Channel(s) : 2 channels
Sampling rate : 48.0 KHz
Bit depth : 16 bits
Stream size : 88.4 MiB (13%)
Language : English
Encoded date : UTC 2010-08-07 08:42:11
Tagged date : UTC 2010-08-07 09:15:52

Скриншоты

[teatrix.ru].t13942.torrent 
Торрент: Зарегистрирован [ 2016-01-22 16:05 ] · 175C1241ABF40A9007DB1D95CA0706D7C7A430D6

Скачать .torrent

Скачать

14 KB

Статус: проверено
Скачан: 0 раз
Размер: 681 MB
terms.php



Быстрый ответ

Имя:

      
Для отправки сообщений необходимо включить JavaScript
Показать сообщения:    

Текущее время: 18-Янв 00:23

Часовой пояс: UTC + 3


Вы можете начинать темы
Вы можете отвечать на сообщения
Вы не можете редактировать свои сообщения
Вы не можете удалять свои сообщения
Вы не можете голосовать в опросах
Вы не можете прикреплять файлы к сообщениям
Вы можете скачивать файлы