Bellydance: The Art of Toning & Technique with Meera [2006 г., Instructional, DVDRip, ENG]


Статистика раздачи [Обновить пиров]
Размер:  579 MB   |    Зарегистрирован:  10 месяцев 13 дней   |    Скачан:  0 раз

Полного источника не было: Никогда

 
   
 
 
 

[Цитировать]

Bellydance: The Art of Toning & Technique with Meera
Год выпуска: 2006
Жанр: Instructional
Продолжительность: 00:58:48.528
Язык: Английский
Описание: Bellydance: The Art of Toning and Technique: Fusing sensuality and femininity into a 21st century workout, Meera combines the artistry of eastern-influenced belly dancing with western-inspired core strengthening and Pilates like exercises. Her fitness enriched design transforms the beauty of an ancient dance into a contemporary, vibrant and energetic workout. Meera's enthusiastic instruction is energizing and fun for beginners and the accomplished alike! Since ancient times, the art of belly dancing has entertained and inspired audiences worldwide. Now, let Meera take you into a world of dazzling grace and alluring style, demonstrating exactly why this art form is so enchanting. Includes a warm up and cool down, thorough core strengthening workout, complete dance instruction, and the world premier of an exclusive Performance Music Video "Jahanara" as the highlight Bonus Feature! "Sculpt your body with sensuality!" Approx 69 Mins.
Качество: DVDRip
Формат: AVI
Видео кодек: XviD
Аудио кодек: MP3
Видео: 640x468 (1.37:1), 29.970 fps, XviD Final 1.0.3 (build 37) ~1236 kbps avg, 0.14 bit/pixel
Аудио: 48 kHz, MPEG Layer 3, 2 ch, ~128.00 kbps avg

Танцевальное резюме: Meera Varma

Daughter of international ethnic dancer
Zarina Varma and classical Indian Tabla player
Raj Varma, Meera's musical upbringing has trained her to be an artist since the age of four. Having lived all over the world, at a very young age this Multi-Award Winning Dancer has had the opportunity to perform on a global stage. Her most recent trips abroad include performances and workshops in places such as Paris, Egypt and New Zealand.
During her artistic career, Meera has indulged herself in many different avenues of the arts and entertainment industry including dancing, acting, and modeling. She has appeared in music videos, television commercials, and even starred in movies. Meera's strong media relationships have generated cover and front page news stories, radio coverage and national television exposure, as well as international acclaim.
Meera's creativity as a performer highlights the emotions of rhythm as she reveals the sensuality of her soul. Her stage presence is powerful yet playful, expressing extraordinary style with grace and beauty. She has performed to a vast array of cultural music, ranging from traditional Eastern music to modern Western music. Her style of dancing is unique, focusing on Dances of India, and traditional Egyptian and Cabaret style Belly Dancing, with the natural essence of her East Indian heredity and technique flowing through every performance. Today, this breakthrough young talent carries on the tradition of her ancestor's musical background, and pursues her artistic career before audiences around the world.

Отчет MediaInfo

General
Complete name : D:\Bellydance - The art of Toning & Technique with Meera DVD Rip.avi
Format : AVI
Format/Info : Audio Video Interleave
File size : 579 MiB
Duration : 58mn 48s
Overall bit rate : 1 376 Kbps
Writing application : VirtualDubMod 1.5.10.2 (build 2540/release)
Writing library : VirtualDubMod build 2540/release
Video
ID : 0
Format : MPEG-4 Visual
Format profile : AdvancedSimple@L5
Format settings, BVOP : Yes
Format settings, QPel : No
Format settings, GMC : No warppoints
Format settings, Matrix : Default (H.263)
Muxing mode : Packed bitstream
Codec ID : XVID
Codec ID/Hint : XviD
Duration : 58mn 48s
Bit rate : 1 236 Kbps
Width : 640 pixels
Height : 468 pixels
Display aspect ratio : 4:3
Frame rate : 29.970 fps
Resolution : 24 bits
Colorimetry : 4:2:0
Scan type : Progressive
Bits/(Pixel*Frame) : 0.138
Stream size : 520 MiB (90%)
Writing library : XviD 1.0.3 (UTC 2004-12-20)
Audio
ID : 1
Format : MPEG Audio
Format version : Version 1
Format profile : Layer 3
Codec ID : 55
Codec ID/Hint : MP3
Duration : 58mn 47s
Bit rate mode : Constant
Bit rate : 128 Kbps
Channel(s) : 2 channels
Sampling rate : 48.0 KHz
Resolution : 16 bits
Stream size : 53.8 MiB (9%)
Alignment : Aligned on interleaves
Interleave, duration : 33 ms (1.00 video frame)
Interleave, preload duration : 504 ms

Скриншоты


[teatrix.ru].t13957.torrent 
Торрент: Зарегистрирован [ 2016-01-22 16:05 ] · 81BC362792E6179FD7C54F427721A78A030CD568

Скачать .torrent

Скачать

12 KB

Статус: проверено
Скачан: 0 раз
Размер: 579 MB
terms.php



Быстрый ответ

Имя:

      
Для отправки сообщений необходимо включить JavaScript
Показать сообщения:    

Текущее время: 04-Дек 17:12

Часовой пояс: UTC + 3


Вы можете начинать темы
Вы можете отвечать на сообщения
Вы не можете редактировать свои сообщения
Вы не можете удалять свои сообщения
Вы не можете голосовать в опросах
Вы не можете прикреплять файлы к сообщениям
Вы можете скачивать файлы