Jayne Middlemiss, Ryan Spielman - Love Yoga [2006 г., йога, DVDRip, ENG] (Видеоуроки)


Статистика раздачи [Обновить пиров]
Размер:  1.45 GB   |    Зарегистрирован:  10 месяцев 14 дней   |    Скачан:  0 раз

Полного источника не было: Никогда

Личеров:  10  [  0 KB/s  ]   Подробная статистика пиров
 
   
 
 
 

[Цитировать]


- Год выпуска: 2006
Страна: UK
Жанр: йога
Язык: Английский
Продолжительность: 02:29:40
- Описание: Jayne Middlemiss, Ryan Spielman - Love Yoga
Телеведущая и победительница передачи 'Остров Любви для знаменитостей' представляет вам занятие йогой, которое помогло ей привести себя в такую форму, чтобы носить откровенные бикини, и показывает, как она поддерживает тело в тонусе. Love Yoga базируется на плавных движениях Аштанги и разработана инструктором по йоге Райаном Спилманом. Эта тренировка не только сформирует вам красивое тело, но и улучшит общее самочувствие. Представлены два отдельных комплекса упражнений: первого уровня для новичков и второго - для продвинутых практиков.
Уровень 1 - Простая, но требующая напряжения тренировка для начинающих.
Уровень 2 - Продвинутая тренировка для более опытных.
--Качество: DVDRip
Формат: AVI 1.0 (VFW 1.1)
Видео кодек: XviD build 50
Аудио кодек: MPEG Layer 3
Видео: XviD, 672 x 384, 16/9, 1 252 Kbps, 25.000 fps, 0.194 b/px
Аудио: MPEG-1 Audio layer 3, 128 Kbps, CBR, 48.0 KHz, 2 ch.

Скриншоты видео


Меню - скриншоты DVD- -Love Yoga_01 Intro = 07:07
-Love Yoga_02 Level 1 = 01:11:36
-Love Yoga_03 Level 2 = 01:10:14

MediaInfo DVD

Complete name                    : LOVE_YOGA\VIDEO_TS\VTS_02_1.VOB
Format                           : MPEG-PS
File size                        : 1 024 MiB
Duration                         : 36mn 58s
Overall bit rate                 : 3 872 Kbps
Video
ID                               : 224 (0xE0)
Format                           : MPEG Video
Format version                   : Version 2
Format profile                   : Main@Main
Format settings, BVOP            : Yes
Format settings, Matrix          : Default
Format settings, GOP             : M=3, N=13
Duration                         : 36mn 58s
Bit rate mode                    : Variable
Bit rate                         : 3 603 Kbps
Nominal bit rate                 : 8 000 Kbps
Width                            : 720 pixels
Height                           : 576 pixels
Display aspect ratio             : 16:9
Frame rate                       : 25.000 fps
Standard                         : PAL
Color space                      : YUV
Chroma subsampling               : 4:2:0
Bit depth                        : 8 bits
Scan type                        : Interlaced
Scan order                       : Top Field First
Bits/(Pixel*Frame)               : 0.348
Stream size                      : 953 MiB (93%)
Audio
ID                               : 128 (0x80)
Format                           : AC-3
Format/Info                      : Audio Coding 3
Mode extension                   : CM (complete main)
Duration                         : 36mn 58s
Bit rate mode                    : Constant
Bit rate                         : 192 Kbps
Channel(s)                       : 2 channels
Channel positions                : Front: L R
Sampling rate                    : 48.0 KHz
Bit depth                        : 16 bits
Stream size                      : 50.8 MiB (5%)
Menu

Дополнительно


Queen of Celebrity Love Island shares her Yoga secrets on exclusive DVD presentation!Jayne Middlemiss, one of the UK's favourite TV stars and Queen of ITV's Celebrity Love Island, makes her debut in the UK fitness market on 26th December 2005 with the Momentum Pictures' DVD release of LOVE YOGA. A unique Ashtanga based programme, created by Ryan Spielman, "yoga instructor to the stars", LOVE YOGA is designed to sculpt, shape and tone the body.A long time student of Yoga, Jayne's super-fit body is testament to the effectiveness of the Yoga discipline. Spending 5 weeks in a bikini in front of millions of British viewers on Celebrity Love Island was the best advertisement possible and now with the release of LOVE YOGA, Jayne will share her Yoga secrets. Ryan Spielman's work with a host of top show business names has catapulted him to the top of his field and made him a leading light in the global Yoga arena. Filmed in Ibiza at Ibiza Yoga, the backdrop to LOVE YOGA provides the perfect inspiration for the Yoga student, whatever the level. With a running time of more than 2 hours, LOVE YOGA offers two separate free-flowing Ashtanga based routines – LEVEL 1 designed for the beginner and LEVEL 2 for the more advanced student. Together, Jayne and Ryan demonstrate a series of yoga poses that are connected together using the breath. The programme includes warm-ups and standing postures, floor postures, and a final relaxation sequence. The easy to follow LOVE YOGA programme has been specially designed to challenge, but never over-extend the body, focus the mind and enhance overall well-being.
Ryan has been studying and teaching Ashtanga Vinyasa Yoga for over 10 years. Almost entirely self-taught, he has become an advanced practitioner, devoting his life to discovering and pushing the boundries of human potential.
As witnessed on this summer's smash hit show Celebrity Love Island Jayne, who has been studying Yoga for more than 12 years, is very experienced in the practice of Yoga.
Comment on this Article
Discussing LOVE YOGA Jayne says "Yoga is such an important part of my life, so I wanted to make a video that could reach everyone. Even if you have never tried yoga before, there is a beginners' class to get you started, and as your practice progresses you can move on to the next section. Both parts are fun and make you feel great! I wanted to set the video against a backdrop of calm, so the yoga retreat we found in Ibiza was perfect. I hope that through practice you will love yoga as much as I do."

Аннотация на оригинальном языке


The television presenter and winner of 'Celebrity Love Island' demonstrates the yoga routine that helped sculpt shape and tone her body in preparation for wearing those skimpy bikinis and reveals how she maintains her fitness and shape. Love Yoga is based on the Ashtanga free flowing routine and is devised by Yoga instructor Ryan Spielman. It is designed to sculpt, shape and tone the body as well as improve an overall sense of well being. Features two specific routines with Level 1 aimed for beginners and Level 2 for the more advanced.
Love Yoga's innovative program includes two separate hour-long routines with Level 1 specifically for beginners and Level 2 designed for the more advanced.
Level 1 - A simple yet challenging workout designed for beginners.
Level 2 - An advanced workout for the more experienced.
[teatrix.ru].t13964.torrent 
Торрент: Зарегистрирован [ 2016-01-22 21:05 ] · 7797FD14207EB11F9117F5064307B2BB7914254B

Скачать .torrent

Скачать

15 KB

Статус: проверено
Скачан: 0 раз
Размер: 1.45 GB
terms.php



Быстрый ответ

Имя:

      
Для отправки сообщений необходимо включить JavaScript
Показать сообщения:    

Текущее время: 06-Дек 15:13

Часовой пояс: UTC + 3


Вы можете начинать темы
Вы можете отвечать на сообщения
Вы не можете редактировать свои сообщения
Вы не можете удалять свои сообщения
Вы не можете голосовать в опросах
Вы не можете прикреплять файлы к сообщениям
Вы можете скачивать файлы