Йога от Горацио Сифуэнтеса / Yoga with Horacio [1992, Йога, VHSRip, ENG] (Видеоурок)


Статистика раздачи [Обновить пиров]
Размер:  371 MB   |    Зарегистрирован:  10 месяцев 14 дней   |    Скачан:  0 раз

Полного источника не было: Никогда

 
   
 
 
 

[Цитировать]

Йога от Горацио Сифуэнтеса / Yoga with Horacio
Страна: Германия
Тематика: Йога
Тип раздаваемого материала: Видеоурок
Продолжительность: 01:01:13
Год выпуска: 1992
Язык: Английский
Перевод: Отсутствует
Описание: Йога от Горацио Сифуэнтеса.
Искусство танца живота такое же древнее, как сама йога. Чтобы у танцовщика/танцовщицы было легкое, сильное и грациозное тело, ему необходимы баланс мышц спины, раскованность тазобедренных суставов, глубокое владение дыхательным и мышечным аппаратом. В этом всегда помогает практика асан и дыхательных техник йоги.
ХОРАСИО CIFUENTES родился в Колумбии и начал танцевать в возрасте 5 лет. Он изучил Flamenco в Испании, балет в Гданьске и его пригласили танцевать с Сан-Франциско Ballett. В течение восьми лет он солировал в более чем 40 классических и современных балетных представлениях.
Он открыл для себя восточный танец и очень быстро достиг успеха в этом виде. Он также давал представления и преподавал в Европе (Германия, Австрия, Бельгия, Дания, Финляндия, Франция, Норвегия, Испания, Швейцария, Великобритания), также как в Австралии, Японии, Египте, Кении и Канаде.
Качество : VHSRip
Формат: AVI
Видео кодек: XviD
Аудио кодек: MP3
Видео: 624x480 (1.30:1), 25 fps, XviD build 50 ~709 kbps avg, 0.09 bit/pixel
Аудио: 48 kHz, MPEG Layer 3, 2 ch, ~128.00 kbps avg

Отчет MediaInfo

General
Complete name : E:\Yoga_with_Horacio.avi
Format : AVI
Format/Info : Audio Video Interleave
File size : 371 MiB
Duration : 1h 1mn
Overall bit rate : 847 Kbps
Writing application : VirtualDubMod 1.5.10.2 (build 2540/release)
Writing library : VirtualDubMod build 2540/release
Video
ID : 0
Format : MPEG-4 Visual
Format profile : Advanced Simple@L5
Format settings, BVOP : Yes
Format settings, QPel : No
Format settings, GMC : No warppoints
Format settings, Matrix : Default (MPEG)
Codec ID : XVID
Codec ID/Hint : XviD
Duration : 1h 1mn
Bit rate : 710 Kbps
Width : 624 pixels
Height : 480 pixels
Display aspect ratio : 1.300
Frame rate : 25.000 fps
Color space : YUV
Chroma subsampling : 4:2:0
Bit depth : 8 bits
Scan type : Progressive
Compression mode : Lossy
Bits/(Pixel*Frame) : 0.095
Stream size : 311 MiB (84%)
Writing library : XviD 1.2.1 (UTC 2008-12-04)
Audio
ID : 1
Format : MPEG Audio
Format version : Version 1
Format profile : Layer 3
Codec ID : 55
Codec ID/Hint : MP3
Duration : 1h 1mn
Bit rate mode : Constant
Bit rate : 128 Kbps
Channel(s) : 2 channels
Sampling rate : 48.0 KHz
Compression mode : Lossy
Stream size : 56.1 MiB (15%)
Alignment : Aligned on interleaves
Interleave, duration : 40 ms (1.00 video frame)
Interleave, preload duration : 504 ms
Writing library : LAME3.98r
Encoding settings : -m s -V 4 -q 2 -lowpass 17 -b 128

Скриншоты


Скринлисты

[teatrix.ru].t13982.torrent 
Торрент: Зарегистрирован [ 2016-01-22 21:05 ] · 330002512AF5BE3FB67A2449C0A97E1000CAB181

Скачать .torrent

Скачать

15 KB

Статус: проверено
Скачан: 0 раз
Размер: 371 MB
terms.php



Быстрый ответ

Имя:

      
Для отправки сообщений необходимо включить JavaScript
Показать сообщения:    

Текущее время: 06-Дек 18:56

Часовой пояс: UTC + 3


Вы можете начинать темы
Вы можете отвечать на сообщения
Вы не можете редактировать свои сообщения
Вы не можете удалять свои сообщения
Вы не можете голосовать в опросах
Вы не можете прикреплять файлы к сообщениям
Вы можете скачивать файлы