Fahtiem «Beautiful Hands & Arms» [2008 г., Instructional, DVD5, ENG]


Статистика раздачи [Обновить пиров]
Размер:  3.97 GB   |    Зарегистрирован:  10 месяцев 16 дней   |    Скачан:  0 раз

Полного источника не было: Никогда

 
   
 
 
 

[Цитировать]

Fahtiem «Beautiful Hands & Arms»
Год выпуска: 2008
Страна: США (USA)
Жанр: Instructional
Продолжительность: 1 час 15 мин.
Язык: Английский

Описание: Разминка, постановка рук, работа в связках.
Оригинальное описание: "There is no magic step that makes you a great dancer, there is only the magic you put in each and every step." - FAHTIEM
On this DVD Fahtiem shares how to put magic into your hands and arms to make your dancing more expressive and graceful.. Fahtiem leads you through a warm-up to prepare for Beautiful Hands and Arms: from your rib cage to your shoulders and down your arms to the tips of your fingers. Then Fahtiem explains and demonstrates basic arm positions and hand and finger placements, including how to maintain correct posture, safe movement, and the difference between Oriental and Folk hand and finger placement.
Fahtiem will show you how to move your arms through space in Air Design to experience and connect the full range of motion of your arms. She'll teach you how to think about what you want your Beautiful Hands and Arms to look like, and how to use resistance and fluidity to achieve different feelings. You'll also learn Beautiful Hand and Arm combinations and movements including:
* Diamond Ring
* Painting the Ceiling
* Reaching for the Stars
* Candle Arms
* and more!
Plus a performance by Fahtiem with Beautiful Hands and Arms!
Качество: DVD5
Формат: DVD Video
Видео кодек: MPEG2
Аудио кодек: AC3

Технические данные

General
Complete name : D:\Fahtiem_Beautiful Hands & Arms\VIDEO_TS\VTS_04_1.VOB
Format : MPEG-PS
File size : 1 024 MiB
Duration : 19mn 35s
Overall bit rate : 7 311 Kbps
Video
ID : 224 (0xE0)
Format : MPEG Video
Format version : Version 2
Format profile : Main@Main
Format settings, Matrix : Default
Duration : 19mn 35s
Bit rate mode : Variable
Bit rate : 6 700 Kbps
Nominal bit rate : 7 000 Kbps
Width : 720 pixels
Height : 480 pixels
Display aspect ratio : 4:3
Frame rate : 29.970 fps
Standard : NTSC
Colorimetry : 4:2:0
Scan type : Interlaced
Scan order : Top Field First
Bits/(Pixel*Frame) : 0.647
Stream size : 939 MiB (92%)
Audio #1
ID : 128 (0x80)
Format : AC-3
Format/Info : Audio Coding 3
Duration : 19mn 34s
Bit rate mode : Constant
Bit rate : 192 Kbps
Channel(s) : 2 channels
Channel positions : L R
Sampling rate : 48.0 KHz
Video delay : -66ms
Stream size : 26.9 MiB (3%)
Audio #2
ID : 129 (0x81)
Format : AC-3
Format/Info : Audio Coding 3
Duration : 19mn 35s
Bit rate mode : Constant
Bit rate : 128 Kbps
Channel(s) : 2 channels
Channel positions : L R
Sampling rate : 48.0 KHz
Video delay : -66ms
Stream size : 17.9 MiB (2%)

Скриншоты


[teatrix.ru].t14032.torrent 
Торрент: Зарегистрирован [ 2016-01-22 21:05 ] · 6CF5E01FE955F94819BEB22F91C73EC34A83C960

Скачать .torrent

Скачать

21 KB

Статус: проверено
Скачан: 0 раз
Размер: 3.97 GB
terms.php



Быстрый ответ

Имя:

      
Для отправки сообщений необходимо включить JavaScript
Показать сообщения:    

Текущее время: 08-Дек 09:07

Часовой пояс: UTC + 3


Вы можете начинать темы
Вы можете отвечать на сообщения
Вы не можете редактировать свои сообщения
Вы не можете удалять свои сообщения
Вы не можете голосовать в опросах
Вы не можете прикреплять файлы к сообщениям
Вы можете скачивать файлы