(Classical) Johan Helmich Roman - The 12 Flute Sonatas, Nos. 1-5 - Dan Laurin, Paradiso Musicale - 2014, FLAC (image+.cue) lossless


 

[Цитировать]

Johan Helmich Roman - The 12 Flute Sonatas, Nos. 1-5 - Dan Laurin, Paradiso Musicale
Жанр: Classical
Страна-производитель диска: Sweden
Год издания диска: 2014
Издатель (лейбл): BIS
Номер по каталогу: BIS-SACD-2105
Дата записи: 2013
Аудиокодек: FLAC
Тип рипа: image+.cue
Битрейт аудио: lossless
Продолжительность: 70:04
Источник: собственный рип
Наличие сканов в содержимом раздачи: да
Треклист:
Johan Helmich Roman (1694–1758)
[1]-[5] Sonata I in G major, BeRI 201
[6]-[9] Sonata II in D major, BeRI 202
[10]-[14] Sonata III in C minor, BeRI 203
[15]-[20] Sonata IV in G major, BeRI 204
[21]-[27] Sonata V in E minor, BeRI 205
Исполнители:
Dan Laurin recorder
Paradiso Musicale
Anna Paradiso harpsichord (Sonatas I–V)
Mats Olofsson cello (Sonatas I, IV & V)
Jonas Nordberg baroque guitar (Sonatas I & V)

Лог создания рипа

Exact Audio Copy V1.1 from 23. June 2015
EAC extraction logfile from 20. January 2016, 20:36
Dan Laurin, Paradiso Musicale / Roman - The 12 Flute Sonatas, Nos. 1-5
Used drive : HL-DT-STDVDRAM GU70N Adapter: 1 ID: 0
Read mode : SecureUtilize accurate stream : YesDefeat audio cache : YesMake use of C2 pointers : No
Read offset correction : 48Overread into Lead-In and Lead-Out : NoFill up missing offset samples with silence : YesDelete leading and trailing silent blocks : NoNull samples used in CRC calculations : YesUsed interface : Native Win32 interface for Win NT & 2000
Used output format : User Defined EncoderSelected bitrate : 128 kBit/sQuality : HighAdd ID3 tag : NoCommand line compressor : C:\Program Files (x86)\Exact Audio Copy\Flac\flac.exeAdditional command line options : -V -8 -T "Date=%year%" -T "Genre=%genre%" %source%
TOC of the extracted CD
Track | Start | Length | Start sector | End sector --------------------------------------------------------- 1 | 0:00.00 | 5:37.72 | 0 | 25346 2 | 5:37.72 | 2:54.47 | 25347 | 38443 3 | 8:32.44 | 1:45.27 | 38444 | 46345 4 | 10:17.71 | 2:37.57 | 46346 | 58177 5 | 12:55.53 | 2:58.71 | 58178 | 71598 6 | 15:54.49 | 4:13.28 | 71599 | 90601 7 | 20:08.02 | 3:38.72 | 90602 | 107023 8 | 23:46.74 | 1:52.27 | 107024 | 115450 9 | 25:39.26 | 1:00.32 | 115451 | 119982 10 | 26:39.58 | 2:47.15 | 119983 | 132522 11 | 29:26.73 | 2:48.54 | 132523 | 145176 12 | 32:15.52 | 2:44.08 | 145177 | 157484 13 | 34:59.60 | 2:06.72 | 157485 | 167006 14 | 37:06.57 | 2:16.29 | 167007 | 177235 15 | 39:23.11 | 4:57.16 | 177236 | 199526 16 | 44:20.27 | 3:31.20 | 199527 | 215371 17 | 47:51.47 | 2:34.02 | 215372 | 226923 18 | 50:25.49 | 1:15.52 | 226924 | 232600 19 | 51:41.26 | 2:19.65 | 232601 | 243090 20 | 54:01.16 | 1:00.20 | 243091 | 247610 21 | 55:01.36 | 2:17.48 | 247611 | 257933 22 | 57:19.09 | 3:28.53 | 257934 | 273586 23 | 60:47.62 | 3:42.29 | 273587 | 290265 24 | 64:30.16 | 1:58.21 | 290266 | 299136 25 | 66:28.37 | 0:54.24 | 299137 | 303210 26 | 67:22.61 | 1:39.38 | 303211 | 310673 27 | 69:02.24 | 1:02.50 | 310674 | 315373
Range status and errors
Selected range
Filename C:\temp\BIS-SACD-2105 - Roman - The 12 Flute Sonatas, Nos. 1-5\Roman - The 12 Flute Sonatas, Nos. 1-5.wav
Peak level 92.7 % Extraction speed 2.3 X Range quality 100.0 % Test CRC 1E45031B Copy CRC 1E45031B Copy OK
No errors occurred
AccurateRip summary
Track 1 accurately ripped (confidence 3) [3F256D81] (AR v2)Track 2 accurately ripped (confidence 3) [6F4CA95A] (AR v2)Track 3 accurately ripped (confidence 3) [1A2B99C4] (AR v2)Track 4 accurately ripped (confidence 3) [85699B99] (AR v2)Track 5 accurately ripped (confidence 3) [D8275D1E] (AR v2)Track 6 accurately ripped (confidence 3) [F3ED7453] (AR v2)Track 7 accurately ripped (confidence 3) [F885F91D] (AR v2)Track 8 accurately ripped (confidence 3) [F289BE7E] (AR v2)Track 9 accurately ripped (confidence 3) [12ACA5C6] (AR v2)Track 10 accurately ripped (confidence 3) [160DC9CE] (AR v2)Track 11 accurately ripped (confidence 3) [E08932F5] (AR v2)Track 12 accurately ripped (confidence 3) [F969DB6C] (AR v2)Track 13 accurately ripped (confidence 3) [31D3D8E2] (AR v2)Track 14 accurately ripped (confidence 3) [00EDD6F4] (AR v2)Track 15 accurately ripped (confidence 3) [A5ABCE2A] (AR v2)Track 16 accurately ripped (confidence 3) [357D93A2] (AR v2)Track 17 accurately ripped (confidence 3) [869E3E6F] (AR v2)Track 18 accurately ripped (confidence 3) [B2C43E5B] (AR v2)Track 19 accurately ripped (confidence 3) [14A729A2] (AR v2)Track 20 accurately ripped (confidence 3) [85108F1D] (AR v2)Track 21 accurately ripped (confidence 3) [6F178DC4] (AR v2)Track 22 accurately ripped (confidence 3) [E2548605] (AR v2)Track 23 accurately ripped (confidence 3) [EAC1307D] (AR v2)Track 24 accurately ripped (confidence 3) [041E952F] (AR v2)Track 25 accurately ripped (confidence 3) [27F21EF4] (AR v2)Track 26 accurately ripped (confidence 3) [F7A16665] (AR v2)Track 27 accurately ripped (confidence 3) [2F3FB3FC] (AR v2)
All tracks accurately ripped
End of status report
==== Log checksum 4A604F0A6FF6BFF1280FBBAEC70C95906D6996637206E452D653956F900C2F80 ====



Показать сообщения:    

Текущее время: 06-Дек 22:57

Часовой пояс: UTC + 3


Вы не можете начинать темы
Вы не можете отвечать на сообщения
Вы не можете редактировать свои сообщения
Вы не можете удалять свои сообщения
Вы не можете голосовать в опросах
Вы не можете прикреплять файлы к сообщениям
Вы не можете скачивать файлы