Metamorphosis Continuity YEAR 2 (2.1-2.2) by Tracy Anderson (Omnicentric) [2012, DVDRip, ENG]


Статистика раздачи [Обновить пиров]
Размер:  5.43 GB   |    Зарегистрирован:  10 месяцев 19 дней   |    Скачан:  1 раз

Полного источника не было: 4 месяца 3 дня

 
   
 
 
 

[Цитировать]

Metamorphosis Continuity YEAR 2 (2.1-2.2) by Tracy Anderson (Omnicentric) [2012, DVDRip, ENG]
Страна: США
Тематика: фитнес
Тип раздаваемого материала: Видеоурок
Продолжительность: указана отдельно
Год выпуска: 2012
Язык: Английский
Перевод: Отсутствует
Описание: Здесь вы найдете продолжение тренировок серии Metamorphosis by Tracy Anderson на 2-ой год с 1 по 6 месяцы. Трейси разработала эту программу чтобы вы научились слушать и понимать свое тело, она состоит из последовательности структурированных тренировок, которые меняются каждые 10 дней.
Начинается 2-ой год по преобразованию вашего тела. Эта программа более продвинута и основывается на той работе, которую вы проделали в первые 12 месяцев тренировок. Упражнения для преобразования мышечной структуры каждый раз будут бросать вам вызов, а кардио тренировка познакомит вас с мини-батутом.
Тем, кто хочет похудеть, Трейси рекомендует делать сначала силовую тренировку, а после нее - кардио.
Для занятий потребуются: коврик, гантели (не более 1,5 кг), утяжелители для ног 0,5 кг, маленький мяч для фитнеса (диаметром 16 см и весом примерно 0,45 кг), стул и полотенце.
Качество: DVDRip
Формат: AVI
Видео кодек: XviD
Аудио кодек: MP3
Видео: XviD MPEG-4 656x368 1290kbps 25fps
Аудио: MPEG Layer 3 112kbps 48000Hz 2ch

СкриншотыContinuity 2.1


Cardio 2.1

Продолжительность тренировокContinuity 2.1

1-10 00:33:34
11-20 00:34:07
21-30 00:33:44
31-40 00:32:40
41-50 00:21:29
51-60 00:29:21
61-70 00:26:34
71-80 00:31:24
81-90 00:32:38
cardio 2.1 00:29:48

Continuity 2.2

91-100 00:31:36
101-110 00:29:37
111-120 00:24:16
121-130 00:31:51
131-140 00:31:16
141-150 00:29:45
151-160 00:29:34
161-170 00:31:36
171-180 00:34:22
cardio 2.2 00:30:43

Отчет MediaInfo

Общее
Полное имя : D:\Аня\Sport\Трейси_Андерсон\Трейси_Меты_омницентрик\Tracy_Anderson_Omnicenric_2_YEAR\Omnicentric_Continuity_2.1\Day 1-10.avi
Формат : AVI
Формат/Информация : Audio Video Interleave
Размер файла : 340 Мбайт
Продолжительность : 33 м.
Общий поток : 1415 Кбит/сек
Программа кодирования : Lavf52.39.1
Видео
Идентификатор : 0
Формат : xvid
Идентификатор кодека : xvid
Продолжительность : 33 м.
Битрейт : 1291 Кбит/сек
Ширина : 656 пикселей
Высота : 368 пикселей
Соотношение сторон : 16:9
Частота кадров : 25,000 кадров/сек
Бит/(Пиксели*Кадры) : 0.214
Размер потока : 310 Мбайт (91%)
Аудио
Идентификатор : 1
Формат : MPEG Audio
Версия формата : Version 1
Профиль формата : Layer 3
Режим : Joint stereo
Расширение режима : MS Stereo
Идентификатор кодека : 55
Идентификатор кодека/Подсказка : MP3
Продолжительность : 33 м.
Вид битрейта : Постоянный
Битрейт : 112 Кбит/сек
Каналы : 2 канала
Частота : 48,0 КГц
Метод сжатия : С потерями
Размер потока : 26,9 Мбайт (8%)
Выравнивание : Соединение по промежуткам
Продолжительность промежутка : 24 мс. (0,60 видеокадр)
Общее
Полное имя : D:\Аня\Sport\Трейси_Андерсон\Трейси_Меты_омницентрик\Tracy_Anderson_Omnicenric_2_YEAR\Omnicentric_Continuity_2.1\Day 11-20.avi
Формат : AVI
Формат/Информация : Audio Video Interleave
Размер файла : 350 Мбайт
Продолжительность : 34 м.
Общий поток : 1435 Кбит/сек
Программа кодирования : Lavf52.39.1
Видео
Идентификатор : 0
Формат : xvid
Идентификатор кодека : xvid
Продолжительность : 34 м.
Битрейт : 1311 Кбит/сек
Ширина : 656 пикселей
Высота : 368 пикселей
Соотношение сторон : 16:9
Частота кадров : 25,000 кадров/сек
Бит/(Пиксели*Кадры) : 0.217
Размер потока : 320 Мбайт (91%)
Аудио
Идентификатор : 1
Формат : MPEG Audio
Версия формата : Version 1
Профиль формата : Layer 3
Режим : Joint stereo
Расширение режима : MS Stereo
Идентификатор кодека : 55
Идентификатор кодека/Подсказка : MP3
Продолжительность : 34 м.
Вид битрейта : Постоянный
Битрейт : 112 Кбит/сек
Каналы : 2 канала
Частота : 48,0 КГц
Метод сжатия : С потерями
Размер потока : 27,3 Мбайт (8%)
Выравнивание : Соединение по промежуткам
Продолжительность промежутка : 24 мс. (0,60 видеокадр)
Общее
Полное имя : D:\Аня\Sport\Трейси_Андерсон\Трейси_Меты_омницентрик\Tracy_Anderson_Omnicenric_2_YEAR\Omnicentric_Continuity_2.1\Day 21-30.avi
Формат : AVI
Формат/Информация : Audio Video Interleave
Размер файла : 351 Мбайт
Продолжительность : 33 м.
Общий поток : 1453 Кбит/сек
Программа кодирования : Lavf52.39.1
Видео
Идентификатор : 0
Формат : xvid
Идентификатор кодека : xvid
Продолжительность : 33 м.
Битрейт : 1329 Кбит/сек
Ширина : 656 пикселей
Высота : 368 пикселей
Соотношение сторон : 16:9
Частота кадров : 25,000 кадров/сек
Бит/(Пиксели*Кадры) : 0.220
Размер потока : 321 Мбайт (91%)
Аудио
Идентификатор : 1
Формат : MPEG Audio
Версия формата : Version 1
Профиль формата : Layer 3
Режим : Joint stereo
Расширение режима : MS Stereo
Идентификатор кодека : 55
Идентификатор кодека/Подсказка : MP3
Продолжительность : 33 м.
Вид битрейта : Постоянный
Битрейт : 112 Кбит/сек
Каналы : 2 канала
Частота : 48,0 КГц
Метод сжатия : С потерями
Размер потока : 27,0 Мбайт (8%)
Выравнивание : Соединение по промежуткам
Продолжительность промежутка : 24 мс. (0,60 видеокадр)
Общее
Полное имя : D:\Аня\Sport\Трейси_Андерсон\Трейси_Меты_омницентрик\Tracy_Anderson_Omnicenric_2_YEAR\Omnicentric_Continuity_2.1\Day 31-40.avi
Формат : AVI
Формат/Информация : Audio Video Interleave
Размер файла : 326 Мбайт
Продолжительность : 32 м.
Общий поток : 1397 Кбит/сек
Программа кодирования : Lavf52.39.1
Видео
Идентификатор : 0
Формат : xvid
Идентификатор кодека : xvid
Продолжительность : 32 м.
Битрейт : 1272 Кбит/сек
Ширина : 656 пикселей
Высота : 368 пикселей
Соотношение сторон : 16:9
Частота кадров : 25,000 кадров/сек
Бит/(Пиксели*Кадры) : 0.211
Размер потока : 297 Мбайт (91%)
Аудио
Идентификатор : 1
Формат : MPEG Audio
Версия формата : Version 1
Профиль формата : Layer 3
Режим : Joint stereo
Расширение режима : MS Stereo
Идентификатор кодека : 55
Идентификатор кодека/Подсказка : MP3
Продолжительность : 32 м.
Вид битрейта : Постоянный
Битрейт : 112 Кбит/сек
Каналы : 2 канала
Частота : 48,0 КГц
Метод сжатия : С потерями
Размер потока : 26,2 Мбайт (8%)
Выравнивание : Соединение по промежуткам
Продолжительность промежутка : 24 мс. (0,60 видеокадр)
Общее
Полное имя : D:\Аня\Sport\Трейси_Андерсон\Трейси_Меты_омницентрик\Tracy_Anderson_Omnicenric_2_YEAR\Omnicentric_Continuity_2.1\Day 41-50.avi
Формат : AVI
Формат/Информация : Audio Video Interleave
Размер файла : 223 Мбайт
Продолжительность : 21 м.
Общий поток : 1449 Кбит/сек
Программа кодирования : Lavf52.39.1
Видео
Идентификатор : 0
Формат : xvid
Идентификатор кодека : xvid
Продолжительность : 21 м.
Битрейт : 1325 Кбит/сек
Ширина : 656 пикселей
Высота : 368 пикселей
Соотношение сторон : 16:9
Частота кадров : 25,000 кадров/сек
Бит/(Пиксели*Кадры) : 0.220
Размер потока : 204 Мбайт (91%)
Аудио
Идентификатор : 1
Формат : MPEG Audio
Версия формата : Version 1
Профиль формата : Layer 3
Режим : Joint stereo
Расширение режима : MS Stereo
Идентификатор кодека : 55
Идентификатор кодека/Подсказка : MP3
Продолжительность : 21 м.
Вид битрейта : Постоянный
Битрейт : 112 Кбит/сек
Каналы : 2 канала
Частота : 48,0 КГц
Метод сжатия : С потерями
Размер потока : 17,2 Мбайт (8%)
Выравнивание : Соединение по промежуткам
Продолжительность промежутка : 24 мс. (0,60 видеокадр)
Общее
Полное имя : D:\Аня\Sport\Трейси_Андерсон\Трейси_Меты_омницентрик\Tracy_Anderson_Omnicenric_2_YEAR\Omnicentric_Continuity_2.1\Day 51-60.avi
Формат : AVI
Формат/Информация : Audio Video Interleave
Размер файла : 286 Мбайт
Продолжительность : 29 м.
Общий поток : 1360 Кбит/сек
Программа кодирования : Lavf52.39.1
Видео
Идентификатор : 0
Формат : xvid
Идентификатор кодека : xvid
Продолжительность : 29 м.
Битрейт : 1235 Кбит/сек
Ширина : 656 пикселей
Высота : 368 пикселей
Соотношение сторон : 16:9
Частота кадров : 25,000 кадров/сек
Бит/(Пиксели*Кадры) : 0.205
Размер потока : 259 Мбайт (91%)
Аудио
Идентификатор : 1
Формат : MPEG Audio
Версия формата : Version 1
Профиль формата : Layer 3
Режим : Joint stereo
Расширение режима : MS Stereo
Идентификатор кодека : 55
Идентификатор кодека/Подсказка : MP3
Продолжительность : 29 м.
Вид битрейта : Постоянный
Битрейт : 112 Кбит/сек
Каналы : 2 канала
Частота : 48,0 КГц
Метод сжатия : С потерями
Размер потока : 23,5 Мбайт (8%)
Выравнивание : Соединение по промежуткам
Продолжительность промежутка : 24 мс. (0,60 видеокадр)
Общее
Полное имя : D:\Аня\Sport\Трейси_Андерсон\Трейси_Меты_омницентрик\Tracy_Anderson_Omnicenric_2_YEAR\Omnicentric_Continuity_2.1\Day 61-70.avi
Формат : AVI
Формат/Информация : Audio Video Interleave
Размер файла : 260 Мбайт
Продолжительность : 26 м.
Общий поток : 1368 Кбит/сек
Программа кодирования : Lavf52.39.1
Видео
Идентификатор : 0
Формат : xvid
Идентификатор кодека : xvid
Продолжительность : 26 м.
Битрейт : 1244 Кбит/сек
Ширина : 656 пикселей
Высота : 368 пикселей
Соотношение сторон : 16:9
Частота кадров : 25,000 кадров/сек
Бит/(Пиксели*Кадры) : 0.206
Размер потока : 236 Мбайт (91%)
Аудио
Идентификатор : 1
Формат : MPEG Audio
Версия формата : Version 1
Профиль формата : Layer 3
Режим : Joint stereo
Расширение режима : MS Stereo
Идентификатор кодека : 55
Идентификатор кодека/Подсказка : MP3
Продолжительность : 26 м.
Вид битрейта : Постоянный
Битрейт : 112 Кбит/сек
Каналы : 2 канала
Частота : 48,0 КГц
Метод сжатия : С потерями
Размер потока : 21,3 Мбайт (8%)
Выравнивание : Соединение по промежуткам
Продолжительность промежутка : 24 мс. (0,60 видеокадр)
Общее
Полное имя : D:\Аня\Sport\Трейси_Андерсон\Трейси_Меты_омницентрик\Tracy_Anderson_Omnicenric_2_YEAR\Omnicentric_Continuity_2.1\Day 71-80.avi
Формат : AVI
Формат/Информация : Audio Video Interleave
Размер файла : 325 Мбайт
Продолжительность : 31 м.
Общий поток : 1447 Кбит/сек
Программа кодирования : Lavf52.39.1
Видео
Идентификатор : 0
Формат : xvid
Идентификатор кодека : xvid
Продолжительность : 31 м.
Битрейт : 1323 Кбит/сек
Ширина : 656 пикселей
Высота : 368 пикселей
Соотношение сторон : 16:9
Частота кадров : 25,000 кадров/сек
Бит/(Пиксели*Кадры) : 0.219
Размер потока : 297 Мбайт (91%)
Аудио
Идентификатор : 1
Формат : MPEG Audio
Версия формата : Version 1
Профиль формата : Layer 3
Режим : Joint stereo
Расширение режима : MS Stereo
Идентификатор кодека : 55
Идентификатор кодека/Подсказка : MP3
Продолжительность : 31 м.
Вид битрейта : Постоянный
Битрейт : 112 Кбит/сек
Каналы : 2 канала
Частота : 48,0 КГц
Метод сжатия : С потерями
Размер потока : 25,2 Мбайт (8%)
Выравнивание : Соединение по промежуткам
Продолжительность промежутка : 24 мс. (0,60 видеокадр)
Общее
Полное имя : D:\Аня\Sport\Трейси_Андерсон\Трейси_Меты_омницентрик\Tracy_Anderson_Omnicenric_2_YEAR\Omnicentric_Continuity_2.1\Day 81-90.avi
Формат : AVI
Формат/Информация : Audio Video Interleave
Размер файла : 300 Мбайт
Продолжительность : 32 м.
Общий поток : 1287 Кбит/сек
Программа кодирования : Lavf52.39.1
Видео
Идентификатор : 0
Формат : xvid
Идентификатор кодека : xvid
Продолжительность : 32 м.
Битрейт : 1162 Кбит/сек
Ширина : 656 пикселей
Высота : 368 пикселей
Соотношение сторон : 16:9
Частота кадров : 25,000 кадров/сек
Бит/(Пиксели*Кадры) : 0.193
Размер потока : 271 Мбайт (90%)
Аудио
Идентификатор : 1
Формат : MPEG Audio
Версия формата : Version 1
Профиль формата : Layer 3
Режим : Joint stereo
Расширение режима : MS Stereo
Идентификатор кодека : 55
Идентификатор кодека/Подсказка : MP3
Продолжительность : 32 м.
Вид битрейта : Постоянный
Битрейт : 112 Кбит/сек
Каналы : 2 канала
Частота : 48,0 КГц
Метод сжатия : С потерями
Размер потока : 26,2 Мбайт (9%)
Выравнивание : Соединение по промежуткам
Продолжительность промежутка : 24 мс. (0,60 видеокадр)
Общее
Полное имя : D:\Аня\Sport\Трейси_Андерсон\Трейси_Меты_омницентрик\Tracy_Anderson_Omnicenric_2_YEAR\Omnicentric_Continuity_2.1\Thumbs.db
Размер файла : 24,0 Кбайт
Общее
Полное имя : D:\Аня\Sport\Трейси_Андерсон\Трейси_Меты_омницентрик\Tracy_Anderson_Omnicenric_2_YEAR\Omnicentric_Continuity_2.1\сardio 2.1.avi
Формат : AVI
Формат/Информация : Audio Video Interleave
Размер файла : 187 Мбайт
Продолжительность : 29 м.
Общий поток : 877 Кбит/сек
Программа кодирования : Lavf52.39.1
Видео
Идентификатор : 0
Формат : xvid
Идентификатор кодека : xvid
Продолжительность : 29 м.
Битрейт : 752 Кбит/сек
Ширина : 656 пикселей
Высота : 368 пикселей
Соотношение сторон : 16:9
Частота кадров : 25,000 кадров/сек
Бит/(Пиксели*Кадры) : 0.125
Размер потока : 160 Мбайт (86%)
Аудио
Идентификатор : 1
Формат : MPEG Audio
Версия формата : Version 1
Профиль формата : Layer 3
Режим : Joint stereo
Расширение режима : MS Stereo
Идентификатор кодека : 55
Идентификатор кодека/Подсказка : MP3
Продолжительность : 29 м.
Вид битрейта : Постоянный
Битрейт : 112 Кбит/сек
Каналы : 2 канала
Частота : 48,0 КГц
Метод сжатия : С потерями
Размер потока : 23,9 Мбайт (13%)
Выравнивание : Соединение по промежуткам
Продолжительность промежутка : 24 мс. (0,60 видеокадр)
Библиотека кодирования : LAME3.96.1
Общее
Полное имя : D:\Аня\Sport\Трейси_Андерсон\Трейси_Меты_омницентрик\Tracy_Anderson_Omnicenric_2_YEAR\Omnicentric_Continuity_2.2\Day 101-110.avi
Формат : AVI
Формат/Информация : Audio Video Interleave
Размер файла : 237 Мбайт
Продолжительность : 29 м.
Общий поток : 1119 Кбит/сек
Программа кодирования : Lavf52.39.1
Видео
Идентификатор : 0
Формат : xvid
Идентификатор кодека : xvid
Продолжительность : 29 м.
Битрейт : 994 Кбит/сек
Ширина : 656 пикселей
Высота : 368 пикселей
Соотношение сторон : 16:9
Частота кадров : 25,000 кадров/сек
Бит/(Пиксели*Кадры) : 0.165
Размер потока : 211 Мбайт (89%)
Аудио
Идентификатор : 1
Формат : MPEG Audio
Версия формата : Version 1
Профиль формата : Layer 3
Режим : Joint stereo
Расширение режима : MS Stereo
Идентификатор кодека : 55
Идентификатор кодека/Подсказка : MP3
Продолжительность : 29 м.
Вид битрейта : Постоянный
Битрейт : 112 Кбит/сек
Каналы : 2 канала
Частота : 48,0 КГц
Метод сжатия : С потерями
Размер потока : 23,7 Мбайт (10%)
Выравнивание : Соединение по промежуткам
Продолжительность промежутка : 24 мс. (0,60 видеокадр)
Общее
Полное имя : D:\Аня\Sport\Трейси_Андерсон\Трейси_Меты_омницентрик\Tracy_Anderson_Omnicenric_2_YEAR\Omnicentric_Continuity_2.2\Day 111-120.avi
Формат : AVI
Формат/Информация : Audio Video Interleave
Размер файла : 179 Мбайт
Продолжительность : 24 м.
Общий поток : 1029 Кбит/сек
Программа кодирования : Lavf52.39.1
Видео
Идентификатор : 0
Формат : xvid
Идентификатор кодека : xvid
Продолжительность : 24 м.
Битрейт : 904 Кбит/сек
Ширина : 656 пикселей
Высота : 368 пикселей
Соотношение сторон : 16:9
Частота кадров : 25,000 кадров/сек
Бит/(Пиксели*Кадры) : 0.150
Размер потока : 157 Мбайт (88%)
Аудио
Идентификатор : 1
Формат : MPEG Audio
Версия формата : Version 1
Профиль формата : Layer 3
Режим : Joint stereo
Идентификатор кодека : 55
Идентификатор кодека/Подсказка : MP3
Продолжительность : 24 м.
Вид битрейта : Постоянный
Битрейт : 112 Кбит/сек
Каналы : 2 канала
Частота : 48,0 КГц
Метод сжатия : С потерями
Размер потока : 19,4 Мбайт (11%)
Выравнивание : Соединение по промежуткам
Продолжительность промежутка : 24 мс. (0,60 видеокадр)
Библиотека кодирования : LAME3.96.1
Общее
Полное имя : D:\Аня\Sport\Трейси_Андерсон\Трейси_Меты_омницентрик\Tracy_Anderson_Omnicenric_2_YEAR\Omnicentric_Continuity_2.2\Day 121-130.avi
Формат : AVI
Формат/Информация : Audio Video Interleave
Размер файла : 285 Мбайт
Продолжительность : 31 м.
Общий поток : 1252 Кбит/сек
Программа кодирования : Lavf52.39.1
Видео
Идентификатор : 0
Формат : xvid
Идентификатор кодека : xvid
Продолжительность : 31 м.
Битрейт : 1128 Кбит/сек
Ширина : 656 пикселей
Высота : 368 пикселей
Соотношение сторон : 16:9
Частота кадров : 25,000 кадров/сек
Бит/(Пиксели*Кадры) : 0.187
Размер потока : 257 Мбайт (90%)
Аудио
Идентификатор : 1
Формат : MPEG Audio
Версия формата : Version 1
Профиль формата : Layer 3
Режим : Joint stereo
Расширение режима : MS Stereo
Идентификатор кодека : 55
Идентификатор кодека/Подсказка : MP3
Продолжительность : 31 м.
Вид битрейта : Постоянный
Битрейт : 112 Кбит/сек
Каналы : 2 канала
Частота : 48,0 КГц
Метод сжатия : С потерями
Размер потока : 25,5 Мбайт (9%)
Выравнивание : Соединение по промежуткам
Продолжительность промежутка : 24 мс. (0,60 видеокадр)
Общее
Полное имя : D:\Аня\Sport\Трейси_Андерсон\Трейси_Меты_омницентрик\Tracy_Anderson_Omnicenric_2_YEAR\Omnicentric_Continuity_2.2\Day 131-140.avi
Формат : AVI
Формат/Информация : Audio Video Interleave
Размер файла : 241 Мбайт
Продолжительность : 31 м.
Общий поток : 1078 Кбит/сек
Программа кодирования : Lavf52.39.1
Видео
Идентификатор : 0
Формат : xvid
Идентификатор кодека : xvid
Продолжительность : 31 м.
Битрейт : 954 Кбит/сек
Ширина : 656 пикселей
Высота : 368 пикселей
Соотношение сторон : 16:9
Частота кадров : 25,000 кадров/сек
Бит/(Пиксели*Кадры) : 0.158
Размер потока : 213 Мбайт (88%)
Аудио
Идентификатор : 1
Формат : MPEG Audio
Версия формата : Version 1
Профиль формата : Layer 3
Режим : Joint stereo
Расширение режима : MS Stereo
Идентификатор кодека : 55
Идентификатор кодека/Подсказка : MP3
Продолжительность : 31 м.
Вид битрейта : Постоянный
Битрейт : 112 Кбит/сек
Каналы : 2 канала
Частота : 48,0 КГц
Метод сжатия : С потерями
Размер потока : 25,1 Мбайт (10%)
Выравнивание : Соединение по промежуткам
Продолжительность промежутка : 24 мс. (0,60 видеокадр)
Библиотека кодирования : LAME3.96.1
Общее
Полное имя : D:\Аня\Sport\Трейси_Андерсон\Трейси_Меты_омницентрик\Tracy_Anderson_Omnicenric_2_YEAR\Omnicentric_Continuity_2.2\Day 141-150.avi
Формат : AVI
Формат/Информация : Audio Video Interleave
Размер файла : 281 Мбайт
Продолжительность : 29 м.
Общий поток : 1319 Кбит/сек
Программа кодирования : Lavf52.39.1
Видео
Идентификатор : 0
Формат : xvid
Идентификатор кодека : xvid
Продолжительность : 29 м.
Битрейт : 1195 Кбит/сек
Ширина : 656 пикселей
Высота : 368 пикселей
Соотношение сторон : 16:9
Частота кадров : 25,000 кадров/сек
Бит/(Пиксели*Кадры) : 0.198
Размер потока : 254 Мбайт (91%)
Аудио
Идентификатор : 1
Формат : MPEG Audio
Версия формата : Version 1
Профиль формата : Layer 3
Режим : Joint stereo
Расширение режима : MS Stereo
Идентификатор кодека : 55
Идентификатор кодека/Подсказка : MP3
Продолжительность : 29 м.
Вид битрейта : Постоянный
Битрейт : 112 Кбит/сек
Каналы : 2 канала
Частота : 48,0 КГц
Метод сжатия : С потерями
Размер потока : 23,8 Мбайт (8%)
Выравнивание : Соединение по промежуткам
Продолжительность промежутка : 24 мс. (0,60 видеокадр)
Библиотека кодирования : LAME3.96.1
Общее
Полное имя : D:\Аня\Sport\Трейси_Андерсон\Трейси_Меты_омницентрик\Tracy_Anderson_Omnicenric_2_YEAR\Omnicentric_Continuity_2.2\Day 151-160.avi
Формат : AVI
Формат/Информация : Audio Video Interleave
Размер файла : 260 Мбайт
Продолжительность : 29 м.
Общий поток : 1231 Кбит/сек
Программа кодирования : Lavf52.39.1
Видео
Идентификатор : 0
Формат : xvid
Идентификатор кодека : xvid
Продолжительность : 29 м.
Битрейт : 1106 Кбит/сек
Ширина : 656 пикселей
Высота : 368 пикселей
Соотношение сторон : 16:9
Частота кадров : 25,000 кадров/сек
Бит/(Пиксели*Кадры) : 0.183
Размер потока : 234 Мбайт (90%)
Аудио
Идентификатор : 1
Формат : MPEG Audio
Версия формата : Version 1
Профиль формата : Layer 3
Режим : Joint stereo
Расширение режима : MS Stereo
Идентификатор кодека : 55
Идентификатор кодека/Подсказка : MP3
Продолжительность : 29 м.
Вид битрейта : Постоянный
Битрейт : 112 Кбит/сек
Каналы : 2 канала
Частота : 48,0 КГц
Метод сжатия : С потерями
Размер потока : 23,7 Мбайт (9%)
Выравнивание : Соединение по промежуткам
Продолжительность промежутка : 24 мс. (0,60 видеокадр)
Библиотека кодирования : LAME3.96.1
Общее
Полное имя : D:\Аня\Sport\Трейси_Андерсон\Трейси_Меты_омницентрик\Tracy_Anderson_Omnicenric_2_YEAR\Omnicentric_Continuity_2.2\Day 161-170.avi
Формат : AVI
Формат/Информация : Audio Video Interleave
Размер файла : 309 Мбайт
Продолжительность : 31 м.
Общий поток : 1368 Кбит/сек
Программа кодирования : Lavf52.39.1
Видео
Идентификатор : 0
Формат : xvid
Идентификатор кодека : xvid
Продолжительность : 31 м.
Битрейт : 1244 Кбит/сек
Ширина : 656 пикселей
Высота : 368 пикселей
Соотношение сторон : 16:9
Частота кадров : 25,000 кадров/сек
Бит/(Пиксели*Кадры) : 0.206
Размер потока : 281 Мбайт (91%)
Аудио
Идентификатор : 1
Формат : MPEG Audio
Версия формата : Version 1
Профиль формата : Layer 3
Режим : Joint stereo
Расширение режима : MS Stereo
Идентификатор кодека : 55
Идентификатор кодека/Подсказка : MP3
Продолжительность : 31 м.
Вид битрейта : Постоянный
Битрейт : 112 Кбит/сек
Каналы : 2 канала
Частота : 48,0 КГц
Метод сжатия : С потерями
Размер потока : 25,3 Мбайт (8%)
Выравнивание : Соединение по промежуткам
Продолжительность промежутка : 24 мс. (0,60 видеокадр)
Библиотека кодирования : LAME3.96.1
Общее
Полное имя : D:\Аня\Sport\Трейси_Андерсон\Трейси_Меты_омницентрик\Tracy_Anderson_Omnicenric_2_YEAR\Omnicentric_Continuity_2.2\Day 171-180.avi
Формат : AVI
Формат/Информация : Audio Video Interleave
Размер файла : 293 Мбайт
Продолжительность : 34 м.
Общий поток : 1192 Кбит/сек
Программа кодирования : Lavf52.39.1
Видео
Идентификатор : 0
Формат : xvid
Идентификатор кодека : xvid
Продолжительность : 34 м.
Битрейт : 1068 Кбит/сек
Ширина : 656 пикселей
Высота : 368 пикселей
Соотношение сторон : 16:9
Частота кадров : 25,000 кадров/сек
Бит/(Пиксели*Кадры) : 0.177
Размер потока : 262 Мбайт (90%)
Аудио
Идентификатор : 1
Формат : MPEG Audio
Версия формата : Version 1
Профиль формата : Layer 3
Режим : Joint stereo
Расширение режима : MS Stereo
Идентификатор кодека : 55
Идентификатор кодека/Подсказка : MP3
Продолжительность : 34 м.
Вид битрейта : Постоянный
Битрейт : 112 Кбит/сек
Каналы : 2 канала
Частота : 48,0 КГц
Метод сжатия : С потерями
Размер потока : 27,5 Мбайт (9%)
Выравнивание : Соединение по промежуткам
Продолжительность промежутка : 24 мс. (0,60 видеокадр)
Общее
Полное имя : D:\Аня\Sport\Трейси_Андерсон\Трейси_Меты_омницентрик\Tracy_Anderson_Omnicenric_2_YEAR\Omnicentric_Continuity_2.2\Day 91-100.avi
Формат : AVI
Формат/Информация : Audio Video Interleave
Размер файла : 304 Мбайт
Продолжительность : 31 м.
Общий поток : 1344 Кбит/сек
Программа кодирования : Lavf52.39.1
Видео
Идентификатор : 0
Формат : xvid
Идентификатор кодека : xvid
Продолжительность : 31 м.
Битрейт : 1220 Кбит/сек
Ширина : 656 пикселей
Высота : 368 пикселей
Соотношение сторон : 16:9
Частота кадров : 25,000 кадров/сек
Бит/(Пиксели*Кадры) : 0.202
Размер потока : 276 Мбайт (91%)
Аудио
Идентификатор : 1
Формат : MPEG Audio
Версия формата : Version 1
Профиль формата : Layer 3
Режим : Joint stereo
Расширение режима : MS Stereo
Идентификатор кодека : 55
Идентификатор кодека/Подсказка : MP3
Продолжительность : 31 м.
Вид битрейта : Постоянный
Битрейт : 112 Кбит/сек
Каналы : 2 канала
Частота : 48,0 КГц
Метод сжатия : С потерями
Размер потока : 25,3 Мбайт (8%)
Выравнивание : Соединение по промежуткам
Продолжительность промежутка : 24 мс. (0,60 видеокадр)
Библиотека кодирования : LAME3.96.1
Общее
Полное имя : D:\Аня\Sport\Трейси_Андерсон\Трейси_Меты_омницентрик\Tracy_Anderson_Omnicenric_2_YEAR\Omnicentric_Continuity_2.2\Thumbs.db
Размер файла : 23,0 Кбайт
Общее
Полное имя : D:\Аня\Sport\Трейси_Андерсон\Трейси_Меты_омницентрик\Tracy_Anderson_Omnicenric_2_YEAR\Omnicentric_Continuity_2.2\сardio 2.2.avi
Формат : AVI
Формат/Информация : Audio Video Interleave
Размер файла : 226 Мбайт
Продолжительность : 30 м.
Общий поток : 1028 Кбит/сек
Программа кодирования : Lavf52.39.1
Видео
Идентификатор : 0
Формат : xvid
Идентификатор кодека : xvid
Продолжительность : 30 м.
Битрейт : 903 Кбит/сек
Ширина : 656 пикселей
Высота : 368 пикселей
Соотношение сторон : 16:9
Частота кадров : 25,000 кадров/сек
Бит/(Пиксели*Кадры) : 0.150
Размер потока : 198 Мбайт (88%)
Аудио
Идентификатор : 1
Формат : MPEG Audio
Версия формата : Version 1
Профиль формата : Layer 3
Режим : Joint stereo
Расширение режима : MS Stereo
Идентификатор кодека : 55
Идентификатор кодека/Подсказка : MP3
Продолжительность : 30 м.
Вид битрейта : Постоянный
Битрейт : 112 Кбит/сек
Каналы : 2 канала
Частота : 48,0 КГц
Метод сжатия : С потерями
Размер потока : 24,6 Мбайт (11%)
Выравнивание : Соединение по промежуткам
Продолжительность промежутка : 24 мс. (0,60 видеокадр)
Библиотека кодирования : LAME3.96.1
Выражаем благодарность за помощь в приобретении программы
jenyastepanenko, Анмалия, KEARAS18, Delsa, Lisa-Alisa-star, Доллифр, Solovushka, Olga Kolbneva, bc45, иван заплюсвичный, lereena-a, tonks_1

[teatrix.ru].t14080.torrent 
Торрент: Зарегистрирован [ 2016-01-23 01:15 ] · 4180DB420D8194E5731F3044B52A56F65EB5D072

Скачать .torrent

Скачать

16 KB

Статус: проверено
Скачан: 1 раз
Размер: 5.43 GB
terms.php



Быстрый ответ

Имя:

      
Для отправки сообщений необходимо включить JavaScript
Показать сообщения:    

Текущее время: 11-Дек 01:28

Часовой пояс: UTC + 3


Вы можете начинать темы
Вы можете отвечать на сообщения
Вы не можете редактировать свои сообщения
Вы не можете удалять свои сообщения
Вы не можете голосовать в опросах
Вы не можете прикреплять файлы к сообщениям
Вы можете скачивать файлы