Ритмическая гимнастика: На море со Светланой Рожновой [1988, фитнес, аэробика, ритмика, VHSRip, RUS] (Видеоурок)


Статистика раздачи [Обновить пиров]
Размер:  1.63 GB   |    Зарегистрирован:  10 месяцев 16 дней   |    Скачан:  1 раз

Полного источника не было: 5 месяцев 15 дней

 
   
 
 
 

[Цитировать]

-Ритмическая гимнастика: На море
со Светланой Рожновой
--Страна: СССР
Тематика: фитнес, аэробика, ритмика
Тип раздаваемого материала: Видеоурок
Продолжительность: 00:27:53
Год выпуска: 1988-Язык: Русский
Перевод: Не требуется-Описание: Девятый комплекс ритмической гимнастики, который провела Светлана Рожнова, занятия аэробикой проводятся в южном курорте на черноморском побережье Краснодарского края. Музыку к этому выпуску написал киевский музыкант-полиинструменталист Вадим Лащук (группа "Дисплей"), так же он исполнил в выпуске песню "Радость движения".-Доп. информация: Полный выпуск со вступительными и заключительными титрами из личного архива Эллен Крайс (Елены Барвинской) (жены покойного Вадима Лащука).-Качество: VHSRip
Формат: MPG
Видео кодек: MPEG2
Аудио кодек: MP2
Видео: MPEG2 Video 720x576 (4:3) 25fps 8014kbps
Аудио: MPEG Audio 48000Hz mono 192kbps

MediaInfo

Общее
Полное имя : C:\Ритмическая гимнастика - На море (1988) VHSRip.mpg
Формат : MPEG-PS
Размер файла : 1,63 Гбайт
Продолжительность : 27 м.
Режим общего битрейта : Переменный
Общий поток : 8373 Кбит/сек
Видео
Идентификатор : 224 (0xE0)
Формат : MPEG Video
Версия формата : Version 2
Профиль формата : Main@Main
Параметр BVOP формата : Да
Параметр матрицы формата : Выборочная
Параметр GOP формата : M=3, N=15
Продолжительность : 27 м.
Вид битрейта : Переменный
Битрейт : 8014 Кбит/сек
Максимальный битрейт : 8152 Кбит/сек
Ширина : 720 пикселей
Высота : 576 пикселей
Соотношение сторон : 4:3
Частота кадров : 25,000 кадров/сек
Стандарт вещания : PAL
Цветовое пространство : YUV
Субдискретизация насыщенности : 4:2:0
Битовая глубина : 8 бит
Тип развёртки : Чересстрочная
Порядок развёртки : Верхнее поле первое
Метод сжатия : С потерями
Бит/(Пиксели*Кадры) : 0.773
Временной код первого кадра : 00:00:00:00
Оригинал временного кода : Group of pictures header
Размер потока : 1,56 Гбайт (96%)
Аудио
Идентификатор : 192 (0xC0)
Формат : MPEG Audio
Версия формата : Version 1
Профиль формата : Layer 2
Продолжительность : 27 м.
Вид битрейта : Постоянный
Битрейт : 192 Кбит/сек
Каналы : 1 канал
Частота : 48,0 КГц
Метод сжатия : С потерями
Размер потока : 38,3 Мбайт (2%)

Скриншоты

[teatrix.ru].t14084.torrent 
Торрент: Зарегистрирован [ 2016-01-23 01:15 ] · B89B47AEAF366396304C49489B26C556080AC9C8

Скачать .torrent

Скачать

17 KB

Статус: проверено
Скачан: 1 раз
Размер: 1.63 GB
terms.php



Быстрый ответ

Имя:

      
Для отправки сообщений необходимо включить JavaScript
Показать сообщения:    

Текущее время: 08-Дек 17:21

Часовой пояс: UTC + 3


Вы можете начинать темы
Вы можете отвечать на сообщения
Вы не можете редактировать свои сообщения
Вы не можете удалять свои сообщения
Вы не можете голосовать в опросах
Вы не можете прикреплять файлы к сообщениям
Вы можете скачивать файлы