Bodylastics Workouts [2011, ОФП, эспандер, DVDRip, ENG] (Видеоурок)


Статистика раздачи [Обновить пиров]
Размер:  1.57 GB   |    Зарегистрирован:  10 месяцев 12 дней   |    Скачан:  0 раз

Полного источника не было: Никогда

 
   
 
 
 

[Цитировать]

Bodylastics Workouts DVD (rip)
Страна: США
Тематика: ОФП, эспандер
Тип раздаваемого материала: Видеоурок
Продолжительность: 3:22:24
Год выпуска: 2011
Язык: Английский
Перевод: Отсутствует
Описание: Диск #1, продающийся в комплекте с эспандерами Bodylastics S.H.S. Mega Resistance System.
Доп. информация: При рипповании выкинула шесть файлов, чтобы исключить дублирование.
Качество: DVDRip
Формат: MP4
Видео кодек: H.264
Аудио кодек: AAC
Видео: 1000 Кбит/сек, 720*490 (1,738), в 59,802 кадров/сек, AVC (Main@L4.0) (САВАС /4 Ref Frames)
Аудио: English, 93,6 Кбит/сек, 48,0 КГц, 2 канала, МС (LC)

''Визуальные'' скриншоты (т.е. - так, как будет на экране)


Скриншоты


MediaInfo для Bodylastics Circuit Training Workout

GeneralComplete name : Bodylastics DVD-rip\Bodylastics Circuit Training Workout.mp4Format : MPEG-4Format profile : Base Media / Version 2Codec ID : mp42File size : 285 MiBDuration : 35mn 56sOverall bit rate mode : VariableOverall bit rate : 1 108 KbpsEncoded date : UTC 2013-10-12 09:17:14Tagged date : UTC 2013-10-12 09:39:37Writing application : HandBrake 0.9.9 2013052900
VideoID : 1Format : AVCFormat/Info : Advanced Video CodecFormat profile : Main@L4.0Format settings, CABAC : YesFormat settings, ReFrames : 4 framesCodec ID : avc1Codec ID/Info : Advanced Video CodingDuration : 35mn 56sBit rate mode : VariableBit rate : 1 000 KbpsWidth : 720 pixelsHeight : 478 pixelsDisplay aspect ratio : 4:3Frame rate mode : VariableFrame rate : 59.940 fpsMinimum frame rate : 19.978 fpsMaximum frame rate : 59.960 fpsColor space : YUVChroma subsampling : 4:2:0Bit depth : 8 bitsScan type : ProgressiveBits/(Pixel*Frame) : 0.048Stream size : 257 MiB (90%)Writing library : x264 core 130 r2273 b3065e6Encoding settings : cabac=1 / ref=1 / deblock=1:0:0 / analyse=0x1:0x111 / me=hex / subme=2 / psy=1 / psy_rd=1.00:0.00 / mixed_ref=0 / me_range=16 / chroma_me=1 / trellis=0 / 8x8dct=0 / cqm=0 / deadzone=21,11 / fast_pskip=1 / chroma_qp_offset=0 / threads=6 / lookahead_threads=2 / sliced_threads=0 / nr=0 / decimate=1 / interlaced=0 / bluray_compat=0 / constrained_intra=0 / bframes=3 / b_pyramid=2 / b_adapt=1 / b_bias=0 / direct=1 / weightb=1 / open_gop=0 / weightp=1 / keyint=300 / keyint_min=30 / scenecut=40 / intra_refresh=0 / rc_lookahead=10 / rc=2pass / mbtree=1 / bitrate=1000 / ratetol=1.0 / qcomp=0.60 / qpmin=0 / qpmax=69 / qpstep=4 / cplxblur=20.0 / qblur=0.5 / vbv_maxrate=20000 / vbv_bufsize=25000 / nal_hrd=none / ip_ratio=1.40 / aq=1:1.00Encoded date : UTC 2013-10-12 09:17:14Tagged date : UTC 2013-10-12 09:39:37Color primaries : BT.601 NTSCTransfer characteristics : BT.709Matrix coefficients : BT.601
AudioID : 2Format : AACFormat/Info : Advanced Audio CodecFormat profile : LCCodec ID : 40Duration : 35mn 56sBit rate mode : VariableBit rate : 96.0 KbpsMaximum bit rate : 110 KbpsChannel(s) : 2 channelsChannel positions : Front: L RSampling rate : 48.0 KHzCompression mode : LossyDelay relative to video : 100msStream size : 24.7 MiB (9%)Language : EnglishEncoded date : UTC 2013-10-12 09:17:14Tagged date : UTC 2013-10-12 09:39:36

MediaInfo для LiveExercise - Chiseled Cardio

GeneralComplete name : Bodylastics DVD-rip\LiveExercise - Chiseled Cardio.mp4Format : MPEG-4Format profile : Base Media / Version 2Codec ID : mp42File size : 389 MiBDuration : 49mn 12sOverall bit rate mode : VariableOverall bit rate : 1 106 KbpsEncoded date : UTC 2013-10-12 07:27:17Tagged date : UTC 2013-10-12 07:58:50Writing application : HandBrake 0.9.9 2013052900
VideoID : 1Format : AVCFormat/Info : Advanced Video CodecFormat profile : Main@L4.0Format settings, CABAC : YesFormat settings, ReFrames : 4 framesCodec ID : avc1Codec ID/Info : Advanced Video CodingDuration : 49mn 12sBit rate mode : VariableBit rate : 1 000 KbpsWidth : 720 pixelsHeight : 490 pixelsDisplay aspect ratio : 1.738Frame rate mode : VariableFrame rate : 59.940 fpsMinimum frame rate : 19.978 fpsMaximum frame rate : 59.960 fpsColor space : YUVChroma subsampling : 4:2:0Bit depth : 8 bitsScan type : ProgressiveBits/(Pixel*Frame) : 0.047Stream size : 351 MiB (90%)Writing library : x264 core 130 r2273 b3065e6Encoding settings : cabac=1 / ref=1 / deblock=1:0:0 / analyse=0x1:0x111 / me=hex / subme=2 / psy=1 / psy_rd=1.00:0.00 / mixed_ref=0 / me_range=16 / chroma_me=1 / trellis=0 / 8x8dct=0 / cqm=0 / deadzone=21,11 / fast_pskip=1 / chroma_qp_offset=0 / threads=6 / lookahead_threads=2 / sliced_threads=0 / nr=0 / decimate=1 / interlaced=0 / bluray_compat=0 / constrained_intra=0 / bframes=3 / b_pyramid=2 / b_adapt=1 / b_bias=0 / direct=1 / weightb=1 / open_gop=0 / weightp=1 / keyint=300 / keyint_min=30 / scenecut=40 / intra_refresh=0 / rc_lookahead=10 / rc=2pass / mbtree=1 / bitrate=1000 / ratetol=1.0 / qcomp=0.60 / qpmin=0 / qpmax=69 / qpstep=4 / cplxblur=20.0 / qblur=0.5 / vbv_maxrate=20000 / vbv_bufsize=25000 / nal_hrd=none / ip_ratio=1.40 / aq=1:1.00Encoded date : UTC 2013-10-12 07:27:17Tagged date : UTC 2013-10-12 07:58:50Color primaries : BT.601 NTSCTransfer characteristics : BT.709Matrix coefficients : BT.601
AudioID : 2Format : AACFormat/Info : Advanced Audio CodecFormat profile : LCCodec ID : 40Duration : 49mn 12sBit rate mode : VariableBit rate : 96.0 KbpsMaximum bit rate : 124 KbpsChannel(s) : 2 channelsChannel positions : Front: L RSampling rate : 48.0 KHzCompression mode : LossyDelay relative to video : 100msStream size : 33.5 MiB (9%)Language : EnglishEncoded date : UTC 2013-10-12 07:27:17Tagged date : UTC 2013-10-12 07:58:49
[teatrix.ru].t14088.torrent 
Торрент: Зарегистрирован [ 2016-01-23 01:15 ] · 8702FCC749038FC9EDB923055A4743228A1E6646

Скачать .torrent

Скачать

17 KB

Статус: проверено
Скачан: 0 раз
Размер: 1.57 GB
terms.php



Быстрый ответ

Имя:

      
Для отправки сообщений необходимо включить JavaScript
Показать сообщения:    

Текущее время: 04-Дек 19:23

Часовой пояс: UTC + 3


Вы можете начинать темы
Вы можете отвечать на сообщения
Вы не можете редактировать свои сообщения
Вы не можете удалять свои сообщения
Вы не можете голосовать в опросах
Вы не можете прикреплять файлы к сообщениям
Вы можете скачивать файлы