Фитнес с Сюзанной Боуэн [2012-2013, фитнес, SiteRip, ENG] (Видеоурок)


Статистика раздачи [Обновить пиров]
Размер:  9.35 GB   |    Зарегистрирован:  10 месяцев 13 дней   |    Скачан:  0 раз

Полного источника не было: Никогда

Личеров:  3  [  0 KB/s  ]   Подробная статистика пиров
 
   
 
 
 

[Цитировать]

Фитнес с Сюзанной Боуэн
Страна: USA
Тематика: фитнес
Тип раздаваемого материала: Видеоурок
Год выпуска: 2012-2013
Язык: Английский
Перевод: Отсутствует
Описание: Он-лайн уроки по подписке с сайта Сюзанны Боуэн. Продолжительность от 10 минут до часа, в основном по полчаса. Стиль: смесь балета, метода Лотты Берк и классичесих силовых упражнений.
Доп. информация: Media Info

скрытый текст

General
Format : MPEG-4
Format profile : Base Media
Codec ID : isom
File size : 294 MiB
Duration : 24mn 33s
Overall bit rate mode : Variable
Overall bit rate : 1 674 Kbps
Movie name : #6
Album/Performer : Bowen
Encoded date : UTC 2013-01-01 19:44:15
Tagged date : UTC 2013-01-01 19:44:15
Writing application : Lavf54.6.100
desc : This video is about #6
Video
ID : 1
Format : AVC
Format/Info : Advanced Video Codec
Format profile : Main@L3.1
Format settings, CABAC : Yes
Format settings, ReFrames : 4 frames
Codec ID : avc1
Codec ID/Info : Advanced Video Coding
Duration : 24mn 33s
Bit rate : 1 500 Kbps
Width : 1 280 pixels
Height : 720 pixels
Display aspect ratio : 16:9
Frame rate mode : Variable
Frame rate : 29.970 fps
Minimum frame rate : 15.000 fps
Maximum frame rate : 30.000 fps
Color space : YUV
Chroma subsampling : 4:2:0
Bit depth : 8 bits
Scan type : Progressive
Bits/(Pixel*Frame) : 0.054
Stream size : 263 MiB (89%)
Writing library : x264 core 118
Encoding settings : cabac=1 / ref=2 / deblock=1:0:0 / analyse=0x1:0x111 / me=umh / subme=8 / psy=1 / psy_rd=1.00:0.00 / mixed_ref=1 / me_range=16 / chroma_me=1 / trellis=1 / 8x8dct=0 / cqm=0 / deadzone=21,11 / fast_pskip=1 / chroma_qp_offset=-2 / threads=12 / sliced_threads=0 / nr=0 / decimate=1 / interlaced=0 / bluray_compat=0 / constrained_intra=0 / bframes=3 / b_pyramid=2 / b_adapt=2 / b_bias=0 / direct=1 / weightb=1 / open_gop=0 / weightp=2 / keyint=30 / keyint_min=16 / scenecut=40 / intra_refresh=0 / rc_lookahead=30 / rc=abr / mbtree=1 / bitrate=1500 / ratetol=1.0 / qcomp=0.60 / qpmin=10 / qpmax=51 / qpstep=4 / ip_ratio=1.40 / aq=1:1.00
Language : English
Encoded date : UTC 2013-01-01 19:44:15
Tagged date : UTC 2013-01-02 17:32:39
Audio
ID : 2
Format : AAC
Format/Info : Advanced Audio Codec
Format profile : LC
Codec ID : 40
Duration : 24mn 33s
Bit rate mode : Variable
Bit rate : 92.5 Kbps
Maximum bit rate : 115 Kbps
Channel(s) : 2 channels
Channel positions : Front: L R
Sampling rate : 48.0 KHz
Compression mode : Lossy
Stream size : 16.2 MiB (6%)
Language : English
Encoded date : UTC 2013-01-01 19:44:15
Tagged date : UTC 2013-01-02 17:32:39
Качество: SiteRip
Формат: MP4
Видео кодек: H.264
Аудио кодек: AAC
Видео: MPEG4 Video (H264) 16:9 1280x720 29.97fps 1 500 Kbps
Аудио: AAC 48000Hz stereo 94kbps 2сh

Скриншоты

[teatrix.ru].t14095.torrent 
Торрент: Зарегистрирован [ 2016-01-23 01:15 ] · 15113026EF1669A08D8675B66FBF12A9B1F0168A

Скачать .torrent

Скачать

49 KB

Статус: проверено
Скачан: 0 раз
Размер: 9.35 GB
terms.php



Быстрый ответ

Имя:

      
Для отправки сообщений необходимо включить JavaScript
Показать сообщения:    

Текущее время: 05-Дек 17:32

Часовой пояс: UTC + 3


Вы можете начинать темы
Вы можете отвечать на сообщения
Вы не можете редактировать свои сообщения
Вы не можете удалять свои сообщения
Вы не можете голосовать в опросах
Вы не можете прикреплять файлы к сообщениям
Вы можете скачивать файлы