Лечебная гимнастика для старшего поколения [2007-2009, Фитнес, гимнастика, SATRip, RUS] (Видеоурок)


Статистика раздачи [Обновить пиров]
Размер:  55.92 GB   |    Зарегистрирован:  10 месяцев 11 дней   |    Скачан:  0 раз
Сидов:  1  [  0 KB/s  ]   Личеров:  3  [  0 KB/s  ]   Подробная статистика пиров
 
   
 
 
 

[Цитировать]

Лечебная гимнастика для старшего поколения
Страна: Россия
Тематика: Фитнес, гимнастика
Тип раздаваемого материала: Видеоурок
Продолжительность: 00:53:00
Год выпуска: 2007-2009
Язык: Русский
Перевод: Не требуется
Описание: Лечебная гимнастика для поколения 50+. Авторская программа ветерана российского фитнеса, профессора РГУФК Taтьяны Лиcицкoй.
Упражнения с элементами танца и аэробики подходят всем. Опасность получить растяжение или какую-нибудь другую травму сведена к нулю.
Качество: SATRip
Формат: MP4
Видео кодек: AVC
Аудио кодек: AAC
Видео: AVC, 720x576, 4:3, 1 500 Kbps, 25 fps
Аудио: AAC, 157 Kbps (constant), 48.0 KHz, 2 channels

Скриншоты

[/URL]

MediaInfo

General
Complete name : 50+ Сезон 3\06.mp4
Format : MPEG-4
Format profile : Base Media / Version 2
Codec ID : mp42
File size : 464 MiB
Duration : 39mn 0s
Overall bit rate : 1 662 Kbps
Encoded date : UTC 2011-02-04 11:59:40
Tagged date : UTC 2011-02-04 11:59:40
Video
ID : 1
Format : AVC
Format/Info : Advanced Video Codec
Format profile : High@L3.2
Format settings, CABAC : Yes
Format settings, ReFrames : 2 frames
Codec ID : avc1
Codec ID/Info : Advanced Video Coding
Duration : 39mn 0s
Bit rate mode : Variable
Bit rate : 1 500 Kbps
Width : 720 pixels
Height : 576 pixels
Display aspect ratio : 4:3
Frame rate mode : Constant
Frame rate : 50.000 fps
Original frame rate : 25.000 fps
Standard : PAL
Resolution : 24 bits
Colorimetry : 4:2:0
Scan type : Interlaced
Scan order : Top Field First
Bits/(Pixel*Frame) : 0.072
Stream size : 418 MiB (90%)
Language : English
Encoded date : UTC 2011-02-04 11:59:40
Tagged date : UTC 2011-02-04 11:59:40
Audio
ID : 2
Format : AAC
Format/Info : Advanced Audio Codec
Format version : Version 4
Format profile : LC
Format settings, SBR : No
Codec ID : 40
Duration : 39mn 0s
Bit rate mode : Constant
Bit rate : 157 Kbps
Nominal bit rate : 4 295 Mbps
Channel(s) : 2 channels
Channel positions : L R
Sampling rate : 48.0 KHz
Resolution : 16 bits
Stream size : 43.9 MiB (9%)
Language : English
Encoded date : UTC 2011-02-04 11:59:40
Tagged date : UTC 2011-02-04 11:59:40
[teatrix.ru].t14097.torrent 
Торрент: Зарегистрирован [ 2016-01-23 01:15 ] · 558C57BB85301A2BA911011677F2EAB50FC09617

Скачать .torrent

Скачать

147 KB

Статус: проверено
Скачан: 0 раз
Размер: 55.92 GB
terms.php



Быстрый ответ

Имя:

      
Для отправки сообщений необходимо включить JavaScript
Показать сообщения:    

Текущее время: 03-Дек 14:40

Часовой пояс: UTC + 3


Вы можете начинать темы
Вы можете отвечать на сообщения
Вы не можете редактировать свои сообщения
Вы не можете удалять свои сообщения
Вы не можете голосовать в опросах
Вы не можете прикреплять файлы к сообщениям
Вы можете скачивать файлы