Шейпинг plus The Beatles [2003 г., шейпинг, фитнес, DVDRip, RUS] (Видеоуроки)


Статистика раздачи [Обновить пиров]
Размер:  744 MB   |    Зарегистрирован:  10 месяцев 14 дней   |    Скачан:  0 раз

Полного источника не было: 1 месяц 16 дней

 
   
 
 
 

[Цитировать]

Шейпинг plus The Beatles
Дополнение к Базовой серии "Времена Года"-Год выпуска: 2003
Страна: Россия
Жанр: фитнес, шейпинг
Язык: русский
Продолжительность: 01:04:16-Описание:
Программа шейпинга под музыку Битлз рассчитана и построена так, чтобы все мышечные группы, по принципу сверху-вниз, были проработаны. Особое внимание уделено проблемным зонам женского тела. Корректирует осанку. не требует специальной физической подготовки, подходит для маленьких квартир.-Прошу рассматривать демонстрируемые упражнения и технику их исполнения через призму разума.-Качество: DVDRip
Формат: AVI
Видео: 640x480 (1.33:1), 25 fps, XviD build 65 ~1480 kbps avg, 0.19 bit/pixel
Аудио: 48 kHz, MPEG Layer 3, 2 ch, ~128.00 kbps-
Отчет MI">

Скриншоты видео Отчет MI


GeneralComplete name : Shaping_Plus_the_Beatles_Olu6ka.aviFormat : AVIFormat/Info : Audio Video InterleaveFile size : 744 MiBDuration : 1h 4mnOverall bit rate : 1 619 KbpsMovie name : Shaping_Plus_the_Beatles_T01Writing application : VirtualDubMod 1.5.10.3
VideoID : 0Format : MPEG-4 VisualFormat profile : Advanced Simple@L5Format settings, BVOP : 1Format settings, QPel : NoFormat settings, GMC : No warppointsFormat settings, Matrix : CustomCodec ID : XVIDCodec ID/Hint : XviDDuration : 1h 4mnBit rate : 1 481 KbpsWidth : 640 pixelsHeight : 480 pixelsDisplay aspect ratio : 4:3Frame rate : 25.000 fpsColor space : YUVChroma subsampling : 4:2:0Bit depth : 8 bitsScan type : ProgressiveCompression mode : LossyBits/(Pixel*Frame) : 0.193Stream size : 681 MiB (91%)Writing library : XviD 65
AudioID : 1Format : MPEG AudioFormat version : Version 1Format profile : Layer 3Codec ID : 55Codec ID/Hint : MP3Duration : 1h 4mnBit rate mode : ConstantBit rate : 128 KbpsChannel(s) : 2 channelsSampling rate : 48.0 KHzCompression mode : LossyStream size : 58.8 MiB (8%)Alignment : Aligned on interleavesInterleave, duration : 40 ms (1.00 video frame)Interleave, preload duration : 504 msWriting library : LAME3.99rEncoding settings : -m s -V 4 -q 2 -lowpass 17 -b 128
[teatrix.ru].t14108.torrent 
Торрент: Зарегистрирован [ 2016-01-23 01:15 ] · 969B452A1744C05CC37C011E91088E16B7C6F858

Скачать .torrent

Скачать

15 KB

Статус: проверено
Скачан: 0 раз
Размер: 744 MB
terms.php



Быстрый ответ

Имя:

      
Для отправки сообщений необходимо включить JavaScript
Показать сообщения:    

Текущее время: 06-Дек 15:14

Часовой пояс: UTC + 3


Вы можете начинать темы
Вы можете отвечать на сообщения
Вы не можете редактировать свои сообщения
Вы не можете удалять свои сообщения
Вы не можете голосовать в опросах
Вы не можете прикреплять файлы к сообщениям
Вы можете скачивать файлы