Красота и здоровье: Гимнастика для детей [2006 г., детский фитнес, DVDRip, RUS] (Видеоурок)


Статистика раздачи [Обновить пиров]
Размер:  745 MB   |    Зарегистрирован:  10 месяцев 16 дней   |    Скачан:  0 раз

Полного источника не было: Никогда

 
   
 
 
 

[Цитировать]

Красота и здоровье: Гимнастика для детей-Год выпуска: 2006
Страна: Чехия
Жанр: детский фитнес
Язык: Чешский
Перевод: Одноголосый закадровый
Продолжительность: 01:05:25-Описание:
Приобщение к занятиям гимнастикой в любом возрасте поможет Вашему ребенку лучше развить двигательные навыки, укрепит его мышцы и суставы, поможет наладить координацию движений, значительно улучшит самочувствие и благоприятно скажется на общем морально-психологическом состоянии.
Представленные Вам занятия проводятся инструктором в легкой игровой форме под ритмичную музыку с использованием самого простого спортивного инвентаря - мяча и полотенца.
Попробуйте провести вместе с Вашим ребенком всего несколько занятий и Вы увидите насколько улучшится его настроение, как он наполнится положительной энергией и как по-новому раскроются Ваши отношения внутри семьи.
Предлагаемые упражнения рассчитаны на детей в возрасте от 6 до 12 лет
-Качество: DVDRip
Формат: AVI
Видео: 720x400 (1.80:1), 25 fps, XviD build 65 ~1453 kbps avg, 0.20 bit/pixel
Аудио: 48 kHz, MPEG Layer 3, 2 ch, ~128.00 kbps
Отчет MI">

Скриншоты видео Отчет MI


GeneralComplete name : \Krasota.i.zdorovie_Gimnastika.dlya.detej_Olu6ka.aviFormat : AVIFormat/Info : Audio Video InterleaveFile size : 745 MiBDuration : 1h 5mnOverall bit rate : 1 591 KbpsWriting application : VirtualDubMod 1.5.10.3
VideoID : 0Format : MPEG-4 VisualFormat profile : Advanced Simple@L5Format settings, BVOP : 1Format settings, QPel : NoFormat settings, GMC : No warppointsFormat settings, Matrix : CustomCodec ID : XVIDCodec ID/Hint : XviDDuration : 1h 5mnBit rate : 1 454 KbpsWidth : 720 pixelsHeight : 400 pixelsDisplay aspect ratio : 16:9Frame rate : 25.000 fpsColor space : YUVChroma subsampling : 4:2:0Bit depth : 8 bitsScan type : ProgressiveCompression mode : LossyBits/(Pixel*Frame) : 0.202Stream size : 680 MiB (91%)Writing library : XviD 65
AudioID : 1Format : MPEG AudioFormat version : Version 1Format profile : Layer 3Codec ID : 55Codec ID/Hint : MP3Duration : 1h 5mnBit rate mode : ConstantBit rate : 128 KbpsChannel(s) : 2 channelsSampling rate : 48.0 KHzCompression mode : LossyStream size : 59.9 MiB (8%)Alignment : Aligned on interleavesInterleave, duration : 40 ms (1.00 video frame)Interleave, preload duration : 504 msWriting library : LAME3.99rEncoding settings : -m s -V 4 -q 2 -lowpass 17 -b 128

Сравнение


Нарушен аспект видео, не выполнен кроп, неудачно подобран деинтерлейс
[teatrix.ru].t14109.torrent 
Торрент: Зарегистрирован [ 2016-01-23 01:15 ] · 1C59CD003E3E66F7ADDBE5D0BEB9FE7946A0F1C1

Скачать .torrent

Скачать

15 KB

Статус: проверено
Скачан: 0 раз
Размер: 745 MB
terms.php



Быстрый ответ

Имя:

      
Для отправки сообщений необходимо включить JavaScript
Показать сообщения:    

Текущее время: 08-Дек 12:56

Часовой пояс: UTC + 3


Вы можете начинать темы
Вы можете отвечать на сообщения
Вы не можете редактировать свои сообщения
Вы не можете удалять свои сообщения
Вы не можете голосовать в опросах
Вы не можете прикреплять файлы к сообщениям
Вы можете скачивать файлы