Секреты красоты - Стань стройной [1999, фитнес, DVDRip, RUS] (Видеоурок)


Статистика раздачи [Обновить пиров]
Размер:  711 MB   |    Зарегистрирован:  10 месяцев 13 дней   |    Скачан:  1 раз

Полного источника не было: 2 часа 54 минуты

 
   
 
 
 

[Цитировать]

Секреты красоты - СТАНЬ СТРОЙНОЙ
Видимый результат за 10 занятий
-
Страна: Россия
Год выпуска: 1999
Тематика: фитнес
Продолжительность: 00:38:42
Язык: Русский
Описание:
Вы хотите избавиться от лишнего веса? Занимайтесь с нами по специальной программе, направленной на сжигание жира. За десять занятий Вы получите видимый результат. Контуры Вашего тела станут отчетливее, жировую прослойку вытеснят окрепшие мышцы. Недостижимых целей не существует.-К сожалению, качество исходника - очень низкое и не позволяет выполнить качественное разделение на сегменты.-Качество: DVDRip
Формат: AVI
Видео: 576x432 (1.33:1), 25 fps, XviD build 65 ~2366 kbps avg, 0.38 bit/pixel
Аудио: 48 kHz, AC3 Dolby Digital, 2/0 (L,R) ch, ~192 kbps

Отчет MI

GeneralComplete name : Sekrety.krasoty.Stan.strojnoj.1999_Olu6ka.aviFormat : AVIFormat/Info : Audio Video InterleaveFile size : 711 MiBDuration : 38mn 42sOverall bit rate : 2 566 KbpsMovie name : Sekrety.krasoty.Stan.strojnoj.1999_Olu6kaWriting application : FairUse Wizard
VideoID : 0Format : MPEG-4 VisualFormat profile : Advanced Simple@L5Format settings, BVOP : YesFormat settings, QPel : NoFormat settings, GMC : No warppointsFormat settings, Matrix : CustomCodec ID : XVIDCodec ID/Hint : XviDDuration : 38mn 42sBit rate : 2 367 KbpsWidth : 576 pixelsHeight : 432 pixelsDisplay aspect ratio : 4:3Frame rate : 25.000 fpsColor space : YUVChroma subsampling : 4:2:0Bit depth : 8 bitsScan type : ProgressiveBits/(Pixel*Frame) : 0.380Stream size : 655 MiB (92%)Writing library : XviD 65
AudioID : 1Format : AC-3Format/Info : Audio Coding 3Mode extension : CM (complete main)Codec ID : 2000Duration : 38mn 16sBit rate mode : ConstantBit rate : 192 KbpsChannel(s) : 2 channelsChannel positions : Front: L RSampling rate : 48.0 KHzBit depth : 16 bitsStream size : 52.6 MiB (7%)Alignment : Split accross interleavesInterleave, duration : 40 ms (1.01 video frame)Interleave, preload duration : 500 ms
[teatrix.ru].t14112.torrent 
Торрент: Зарегистрирован [ 2016-01-23 01:15 ] · 86E876E22DC35CD6B2FEC4AB442111EB851FC03D

Скачать .torrent

Скачать

14 KB

Статус: проверено
Скачан: 1 раз
Размер: 711 MB
terms.php



Быстрый ответ

Имя:

      
Для отправки сообщений необходимо включить JavaScript
Показать сообщения:    

Текущее время: 05-Дек 05:28

Часовой пояс: UTC + 3


Вы можете начинать темы
Вы можете отвечать на сообщения
Вы не можете редактировать свои сообщения
Вы не можете удалять свои сообщения
Вы не можете голосовать в опросах
Вы не можете прикреплять файлы к сообщениям
Вы можете скачивать файлы