Секреты красоты - Королевская осанка [1999, фитнес, DVDRip, RUS] (Видеоурок)


Статистика раздачи [Обновить пиров]
Размер:  744 MB   |    Зарегистрирован:  10 месяцев 12 дней   |    Скачан:  0 раз

Полного источника не было: Никогда

 
   
 
 
 

[Цитировать]

Секреты красоты - КОРОЛЕВСКАЯ ОСАНКА
Видимый результат за 10 занятий
-
Страна: Россия
Год выпуска: 1999
Тематика: фитнес
Продолжительность: 00:50:41
Язык: Русский
Описание: Предлагаем вам эффективный и увлекательный комплекс упражнений для гимнастики позвоночника. Вы добьетесь видимых результатов уже через десять занятий! Здоровый позвоночник и хорошая осанка творят чудеса: животстановится плоским, грудь поднимается и вы кажетесь выше ростом. Стройная фигура, летящая походка и королевская осанка - это то, к чему стремится каждая женщина. Сделайте шаг навстречу новому облику.-Качество: DVDRip
Формат: AVI
Видео: 624x464 (1.34:1), 25 fps, XviD build 65 ~1852 kbps avg, 0.26 bit/pixel
Аудио: 48 kHz, AC3 Dolby Digital, 2/0 (L,R) ch, ~192 kbps

Отчет MI

GeneralComplete name : Stan.strojnoj_Korolevskaya.osanka\Korolevskaya.osanka_01 Mini.kurs.aviFormat : AVIFormat/Info : Audio Video InterleaveFile size : 90.1 MiBDuration : 6mn 7sOverall bit rate : 2 055 KbpsMovie name : Korolevskaya.osanka_01 Mini.kursWriting application : FairUse Wizard
VideoID : 0Format : MPEG-4 VisualFormat profile : Advanced Simple@L5Format settings, BVOP : YesFormat settings, QPel : NoFormat settings, GMC : No warppointsFormat settings, Matrix : CustomCodec ID : XVIDCodec ID/Hint : XviDDuration : 6mn 7sBit rate : 1 853 KbpsWidth : 624 pixelsHeight : 464 pixelsDisplay aspect ratio : 4:3Frame rate : 25.000 fpsColor space : YUVChroma subsampling : 4:2:0Bit depth : 8 bitsScan type : ProgressiveBits/(Pixel*Frame) : 0.256Stream size : 81.2 MiB (90%)Writing library : XviD 65
AudioID : 1Format : AC-3Format/Info : Audio Coding 3Mode extension : CM (complete main)Codec ID : 2000Duration : 6mn 7sBit rate mode : ConstantBit rate : 192 KbpsChannel(s) : 2 channelsChannel positions : Front: L RSampling rate : 48.0 KHzBit depth : 16 bitsVideo delay : 16msStream size : 8.41 MiB (9%)Alignment : Split accross interleavesInterleave, duration : 40 ms (1.00 video frame)Interleave, preload duration : 500 ms
[teatrix.ru].t14113.torrent 
Торрент: Зарегистрирован [ 2016-01-23 01:15 ] · 42E7425DED96CF8405C4A68901B52E92ADDB4B05

Скачать .torrent

Скачать

15 KB

Статус: проверено
Скачан: 0 раз
Размер: 744 MB
terms.php



Быстрый ответ

Имя:

      
Для отправки сообщений необходимо включить JavaScript
Показать сообщения:    

Текущее время: 04-Дек 06:53

Часовой пояс: UTC + 3


Вы можете начинать темы
Вы можете отвечать на сообщения
Вы не можете редактировать свои сообщения
Вы не можете удалять свои сообщения
Вы не можете голосовать в опросах
Вы не можете прикреплять файлы к сообщениям
Вы можете скачивать файлы