Beachbody & Les Mills: COMBAT - Ultimate Warrior Kit [2012, кардио, фитнес, жиросжигание, DVDRip, ENG] (Видеоурок)


Статистика раздачи [Обновить пиров]
Размер:  4.93 GB   |    Зарегистрирован:  10 месяцев 14 дней   |    Скачан:  0 раз

Полного источника не было: Никогда

Личеров:  12  [  0 KB/s  ]   Подробная статистика пиров
 
   
 
 
 

[Цитировать]


Beachbody & Les Mills: COMBAT - Ultimate Warrior Kit- Страна: США - Новая Зеландия
Тематика: кардио, фитнес, жиросжигание
Тип раздаваемого материала: Видеоурок
Продолжительность: 07:56:00
Год выпуска: 2012
Язык: Английский
Перевод: Отсутствует
Субтитры: Английские-Описание: Почему Les Mills Combat дает такие потрясающие результаты?
Секрет кроется в тренинге, который буквально мощно взрывает ваши мышечные волокна, и дает вам ни с чем не сравнимую нагрузку. Тренинг состоит из 6 динамических техник боевых искусств, которые используются в программе Les Mills Combat таким образом, чтобы вы постоянно сохраняли высокую интенсивность тренировки и получали отличные результаты. Вы будете выполнять движения из каратэ, кунг-фу, капоэйры, джиу-джитсу, муай тай, кикбоксинга, тхэквондо и бокса – все в одной тренировке – и, поверьте, вы легко сожжете до 1000 калорий за час!
Встречайте создателей Les Mills Combat! Вы готовы быть в самой лучшей физической форме в своей жизни? Тогда начинайте тренироваться с экспертами – Дэном Коэном и Рейчел Ньюшем.
-Качество: DVDRip
Формат: AVI
Видео: 688x384 (1.79:1), 23.976 fps, XviD build 65 ~1365 kbps avg, 0.22 bit/pixel
Аудио #1: 48 kHz, MPEG Layer 3, 2 ch, ~128.00 kbps - голос поверх музыки
Аудио #2: 48 kHz, MPEG Layer 3, 2 ch, ~128.00 kbps - музыка поверх голоса
-

Состав комплекта - видео


The Ultimate Warrior Kit includes everything in the Supreme Warrior Kit, plus 4 additional workouts.
7 High-Intensity Workouts:
• 01 LES MILLS COMBAT: THE BASICS: Master the techniques as well as the martial arts-based guards and stances you will use throughout all the LES MILLS COMBAT workouts. (30 minutes)
• 02 LES MILLS COMBAT 30: KICK START: A low-complexity but high-intensity workout that introduces you to the basic LES MILLS COMBAT combination moves.
• 03 LES MILLS COMBAT 45: POWER KATA: "Katas" are martial arts training methods that develop technique and flow. This workout combines speed and power with cross-training for complete calorie scorching.
• 04 LES MILLS COMBAT 60: EXTREME CARDIO FIGHTER: Challenge your endurance and push your body to the outer limits of fitness with a high-repetition sequence of moves that will have your muscles firing on all cylinders.
• 05 LES MILLS COMBAT 60 LIVE: ULTIMATE WARRIOR'S WORKOUT: A hard-driving blend of all the martial arts featured in the LES MILLS COMBAT programs. From your upper body to your legs and butt to your core, this workout hits every muscle.
• 06 LES MILLS COMBAT: POWER HIIT 1: High Intensity Interval Training that uses short bursts of maximum effort followed by recovery to push you into muscle-conditioning overload and get you chiseled, fast.
• 07 LES MILLS COMBAT: SHOCK PLYO HIIT 2: Uses propulsion exercises to improve athletic power and endurance, pushing you into peak performance mode. This workout is the ultimate body shot!
These additional workouts are available with the Ultimate Warrior Kit:
• 08 WARRIOR 1: UPPER BODY BLOW OUT: Strengthen and tone your upper body through this unrelenting workout that combines weighted moves with body resistance to help seriously sculpt and define your biceps, triceps, shoulders, and back.
• 09 WARRIOR 2: LOWER BODY LEAN OUT: Lengthen your entire lower body—hips, thighs, buns, calves, and core—with this combination athletic/martial arts training workout.
• 10 INNER WARRIOR: STRENGTH AND STRETCH: This martial arts–based strength and flexibility training workout is designed to enhance your balance, strength, and coordination, which will make all your other moves much more effective.
• 11 CORE ATTACK: This workout uses the very best integrated and isolated exercises to give you the ultimate core strength while helping you chisel a serious six-pack.
Order LES MILLS COMBAT on Team Beachbody® and get:
• 12 LES MILLS COMBAT 30: LIVE: This high-voltage LES MILLS COMBAT class was shot live in the UK. It's designed to help you achieve leaner arms, shoulders, and upper back, while also delivering explosive leg training and high-intensity cardio.

Документация

3 календаря, Фитнес гид, Гид по питанию, Таблица для отслеживания прогресса-

MI

GeneralComplete name : Les Mills Combat_03 Combat 45 - Power Kata.aviFormat : AVIFormat/Info : Audio Video InterleaveFile size : 526 MiBDuration : 44mn 59sOverall bit rate : 1 635 KbpsMovie name : Les Mills Combat_03 Combat 45 - Power KataWriting application : FairUse Wizard
VideoID : 0Format : MPEG-4 VisualFormat profile : Advanced Simple@L5Format settings, BVOP : YesFormat settings, QPel : NoFormat settings, GMC : No warppointsFormat settings, Matrix : CustomCodec ID : XVIDCodec ID/Hint : XviDDuration : 44mn 59sBit rate : 1 365 KbpsWidth : 688 pixelsHeight : 384 pixelsDisplay aspect ratio : 16:9Frame rate : 23.976 fpsColor space : YUVChroma subsampling : 4:2:0Bit depth : 8 bitsScan type : ProgressiveBits/(Pixel*Frame) : 0.215Stream size : 439 MiB (83%)Writing library : XviD 65
Audio #1ID : 1Format : MPEG AudioFormat version : Version 1Format profile : Layer 3Mode : Joint stereoMode extension : MS StereoCodec ID : 55Codec ID/Hint : MP3Duration : 44mn 58sBit rate mode : ConstantBit rate : 128 KbpsChannel(s) : 2 channelsSampling rate : 48.0 KHzStream size : 41.2 MiB (8%)Alignment : Split accross interleavesInterleave, duration : 42 ms (1.00 video frame)Interleave, preload duration : 500 ms
Audio #2ID : 2Format : MPEG AudioFormat version : Version 1Format profile : Layer 3Mode : Joint stereoMode extension : MS StereoCodec ID : 55Codec ID/Hint : MP3Duration : 44mn 58sBit rate mode : ConstantBit rate : 128 KbpsChannel(s) : 2 channelsSampling rate : 48.0 KHzStream size : 41.2 MiB (8%)Alignment : Split accross interleavesInterleave, duration : 42 ms (1.00 video frame)Interleave, preload duration : 500 ms
[teatrix.ru].t14124.torrent 
Торрент: Зарегистрирован [ 2016-01-23 01:15 ] · E397FFCE3C1D16C03A8E44FF66FF8BA9B61390B1

Скачать .torrent

Скачать

36 KB

Статус: проверено
Скачан: 0 раз
Размер: 4.93 GB
terms.php



Быстрый ответ

Имя:

      
Для отправки сообщений необходимо включить JavaScript
Показать сообщения:    

Текущее время: 06-Дек 21:00

Часовой пояс: UTC + 3


Вы можете начинать темы
Вы можете отвечать на сообщения
Вы не можете редактировать свои сообщения
Вы не можете удалять свои сообщения
Вы не можете голосовать в опросах
Вы не можете прикреплять файлы к сообщениям
Вы можете скачивать файлы