Zumba® Fitness - Zumba ZIN Warm Up / Cool Down Set [2010 г., фитнес, DVDRip, MP3, ENG] (Видеоуроки)


Статистика раздачи [Обновить пиров]
Размер:  598 MB   |    Зарегистрирован:  10 месяцев 12 дней   |    Скачан:  1 раз

Полного источника не было: 4 месяца 5 дней

Личеров:  12  [  0 KB/s  ]   Подробная статистика пиров
 
   
 
 
 

[Цитировать]

Zumba® Fitness - Zumba ZIN
Warm Up and Cool Down with Tanya Beardsley CD-DVD

Год выпуска: 2010
Страна: США
Жанр: Фитнес
Язык: Английский
Перевод: Отсутствует
Продолжительность видео: 00:35:29
Продолжительность CD: 00:32:30 (MP3, tracks, VBR 219 kbps)
-Описание:
Zumba Fitness® не похожа ни на одну известную Вам фитнес-программу!
Она была разработана в середине 90-х колумбийцем Альберто «Бето» Пересом – популярным фитнес-тренером и хореографом многих поп-звезд. Вдохновленный волнующими ритмами кумбии, салсы, самбы и меренги, знакомыми ему с детства, Бето соединил их с танцевальными элементами других культур, вернее, он отобрал те из них, которые более всего нравились его клиентам. Так родилась Zumba Fitness® («веселье в движении» на испанском сленге). В 1999 Бето привез Zumba Fitness® в США, где она сразу стала одной из самых популярных фитнес-программ. Заразительные ритмы и простые движения Zumba, а главное ее невероятная эффективность покорили людей всех возрастов. Теперь и у Вас есть возможность насладиться всем этим, где бы вы не находились, благодаря нашей эксклюзивной DVD коллекции. Чего же Вы ждете! Попробуйте Zumba сегодня!
С этой, состоящей из зажигательных танцевальных па, пульсирующих латиноамериканских мелодий и набора простых упражнений фитнес «вечеринкой» Вы и сами не заметите, как начнете двигаться, наслаждаться жизнью и сбрасывать лишний вес, полностью растворившись в экзотических ритмах салсы, кумбии, меренги и многого другого! Измените свое тело полностью с Zumba® fitness, этим неподражаемым курсом тренировок. Ознакомившись с азами, Вы сможете сразу сконцентрироваться на самых важных элементах фигуры – прессе и бедрах. Пришло время заняться собой!-Перед вами - часть Zumba Instructor Network (ZIN) серии. Все обучение движениям разминки и заминки ведет Таня Бердсли (Tanya Beardsley)
-Качество: DVDRip
Формат: AVI
Видео: 720x400 (1.80:1), 23.976 fps, XviD build 65 ~1998 kbps avg, 0.29 bit/pixel
Аудио: 48 kHz, AC3 Dolby Digital, 2/0 (L,R) ch, ~192 kbps

Скриншоты видео

Enjoy Tanya’s expert advice on warm-up and cooldown routines and specially handpicked songs that will shift your students into gear, then wind them down and "leave them floating." "Your warm up is your hook, and your cool down should leave them floating!" - Tanya Beardsley , Zumba Education Specialist
TrackList
Warm Up: 1. Latin Ritual- Latin Percussion 2. Turbina- Hip Hop 3. El Chacón- Merengue Hip Hop 4. Jamaican Cumbia- by Bachaco- Cumbia 5. La Temperatura- Merengue
CoolDown: 6. Por Ti- By Kema- Tropi-Pop 7. No Me Dejes Solo- By Kema- Tropi-Pop 8. New York House - House
-

Запасные скринщоты

Отчет MI видео

GeneralComplete name : \Zumba Fitness - Warm Up Cool Down_DVDRip\Zumba_Warm Up_02.aviFormat : AVIFormat/Info : Audio Video InterleaveFile size : 49.1 MiBDuration : 3mn 7sOverall bit rate : 2 201 KbpsMovie name : Zumba_Warm Up_02Writing application : FairUse Wizard
VideoID : 0Format : MPEG-4 VisualFormat profile : Advanced Simple@L5Format settings, BVOP : YesFormat settings, QPel : NoFormat settings, GMC : No warppointsFormat settings, Matrix : CustomCodec ID : XVIDCodec ID/Hint : XviDDuration : 3mn 7sBit rate : 1 999 KbpsWidth : 720 pixelsHeight : 400 pixelsDisplay aspect ratio : 16:9Frame rate : 23.976 fpsColor space : YUVChroma subsampling : 4:2:0Bit depth : 8 bitsScan type : ProgressiveBits/(Pixel*Frame) : 0.289Stream size : 44.6 MiB (91%)Writing library : XviD 65
AudioID : 1Format : AC-3Format/Info : Audio Coding 3Mode extension : CM (complete main)Codec ID : 2000Duration : 3mn 7sBit rate mode : ConstantBit rate : 192 KbpsChannel(s) : 2 channelsChannel positions : Front: L RSampling rate : 48.0 KHzBit depth : 16 bitsStream size : 4.28 MiB (9%)Alignment : Split accross interleavesInterleave, duration : 42 ms (1.00 video frame)Interleave, preload duration : 500 ms

Отчет MI CD


GeneralComplete name : Zumba Fitness - Warm Up Cool Down - Audio CD\Zumba Fitness_01 Warm Up - Latin Ritual - Latin percussion.mp3Format : MPEG AudioFile size : 9.49 MiBDuration : 6mn 3sOverall bit rate : 219 KbpsAlbum : Warm Up Cool Down with Tanya BeardsleyTrack name : Latin Ritual - Latin percussionTrack name/Position : 1Performer : Zumba FitnessGenre : LatinRecorded date : 2011Writing library : LAME3.99rEncoding settings : LAME 32bits version 3.99.3
AudioFormat : MPEG AudioFormat version : Version 1Format profile : Layer 3Mode : Joint stereoDuration : 6mn 3sBit rate mode : VariableBit rate : 219 KbpsMinimum bit rate : 32.0 KbpsChannel(s) : 2 channelsSampling rate : 44.1 KHzStream size : 9.49 MiB (100%)Writing library : LAME3.99rEncoding settings : -m j -V 2 -q 0 -lowpass 18.5 --vbr-new -b 32
[teatrix.ru].t14127.torrent 
Торрент: Зарегистрирован [ 2016-01-23 01:15 ] · C660CCEB696BD259203CD9D3097CABE2EEE11587

Скачать .torrent

Скачать

14 KB

Статус: проверено
Скачан: 1 раз
Размер: 598 MB
terms.php



Быстрый ответ

Имя:

      
Для отправки сообщений необходимо включить JavaScript
Показать сообщения:    

Текущее время: 04-Дек 17:19

Часовой пояс: UTC + 3


Вы можете начинать темы
Вы можете отвечать на сообщения
Вы не можете редактировать свои сообщения
Вы не можете удалять свои сообщения
Вы не можете голосовать в опросах
Вы не можете прикреплять файлы к сообщениям
Вы можете скачивать файлы