Александра Селезнева - Сприп пластика. Кардиостриптиз - части 1 и 2 [2005 г., фитнес, стрип, DVDRip, RUS] (Видеоуроки)


Статистика раздачи [Обновить пиров]
Размер:  1.46 GB   |    Зарегистрирован:  10 месяцев 16 дней   |    Скачан:  0 раз

Полного источника не было: Никогда

 
   
 
 
 

[Цитировать]

Александра Селезнева - Стриппластика. Кардиостриптиз
Части 1 и 2
- Год выпуска: 2005
Производство: Россия, Fitness Express
Жанр: фитнес, стрипдэнс
Продолжительность: 01:01:11 + 00:58:55
Язык: Русский-Описание: Автор и ведущая программы: Александра Селезнева - Международный презентер 2004г. Римини (Италия), преподаватель семинаров по танцевальной аэробике компании "Fitness-Express", автор и ведущая видео и телепрограмм по фитнесу, танцовщица группы «Иванушки International».-Часть 1 - Танец раскрепощения, страсти и чувственности создает маленький спектакль, который завораживает не только ваши сердца, но и заставляет затаить дыхание случайных, а может и не очень случайных, наблюдателей! Вы перевоплощаетесь, раскрываете свои самые тайные желания и, что самое главное, Вы их воплощаете в жизнь! Двигаясь в режиме нон-стоп, Вы тренируете сердце и избавляетесь от ненавистных килограммов. Также это занятие способствует развитию гибкости и пластики, приведению в тонус мышц, развитию координации движений и повышению психо-эмоционального уровня. Вы почувствуете себя свободней. Даже в повседневной жизни Ваши движения станут уверенней и мягче, а многие комплексы навсегда покинут Вас.-Часть 2 - Гибкость, пластичность и сексуальность собственного я - тайная фантазия чуть ли не каждой женщины. Ведь умение соблазнительно показать себя в фейерверке танца, сохранив при этом лёгкость и непринуждённость, усиливают привлекательность женщины, делают её неотразимой в глазах мужчины. С каждым днем стрип-пластика завоевывает сердца все большего количества поклонниц как в мире фитнеса, и в танцевальных кругах. И немудрено: ведь стриптиз - это самый сексуальный способ сгонять калории! И хотя занятия не требуют больших физических усилий, - это отличная фитнес тренировка с максимальным задействованием мышц рук, груди, живота, ног и ягодиц. В основу нашей программы положена методика подготовки профессиональных танцовщиц стриптиза.
Она рассчитана на всех желающих, кто хотел бы в совершенстве владеть своим телом, сделать его гибким, пластичным, научиться красиво двигаться, раскрепоститься и чувствовать себя уверенно в любых ситуациях. Эмоции и чувственность заставят вас взлететь и ощутить свободу... Освободите богиню внутри себя!
-Качество: DVDRip
Формат: AVI
Видео: 640x480 (1.33:1), 25 fps, XviD build 65 ~1599 kbps avg, 0.21 bit/pixel
Аудио: 48 kHz, MPEG Layer 3, 2 ch, ~128.00 kbps

Скриншоты

Часть 1
-Часть 2

Дополнительно

Меню - скриншоты DVD
-

Отчет MI

Complete name : \Fitness-Express_Stripplastika_01.aviFormat : AVIFormat/Info : Audio Video InterleaveFile size : 760 MiBDuration : 1h 1mnOverall bit rate : 1 738 KbpsMovie name : Fitness-Express_Stripplastika_01Writing application : VirtualDubMod 1.5.10.3
VideoID : 0Format : MPEG-4 VisualFormat profile : Advanced Simple@L5Format settings, BVOP : YesFormat settings, QPel : NoFormat settings, GMC : No warppointsFormat settings, Matrix : CustomCodec ID : XVIDCodec ID/Hint : XviDDuration : 1h 1mnBit rate : 1 600 KbpsWidth : 640 pixelsHeight : 480 pixelsDisplay aspect ratio : 4:3Frame rate : 25.000 fpsColor space : YUVChroma subsampling : 4:2:0Bit depth : 8 bitsScan type : ProgressiveBits/(Pixel*Frame) : 0.208Stream size : 700 MiB (92%)Writing library : XviD 65
AudioID : 1Format : MPEG AudioFormat version : Version 1Format profile : Layer 3Codec ID : 55Codec ID/Hint : MP3Duration : 1h 1mnBit rate mode : ConstantBit rate : 128 KbpsChannel(s) : 2 channelsSampling rate : 48.0 KHzStream size : 56.0 MiB (7%)Alignment : Aligned on interleavesInterleave, duration : 40 ms (1.00 video frame)Interleave, preload duration : 504 ms
[teatrix.ru].t14132.torrent 
Торрент: Зарегистрирован [ 2016-01-23 01:15 ] · 1C7CCBABE78F9A0674A004D290AE6FBC167606BB

Скачать .torrent

Скачать

15 KB

Статус: проверено
Скачан: 0 раз
Размер: 1.46 GB
terms.php



Быстрый ответ

Имя:

      
Для отправки сообщений необходимо включить JavaScript
Показать сообщения:    

Текущее время: 08-Дек 19:05

Часовой пояс: UTC + 3


Вы можете начинать темы
Вы можете отвечать на сообщения
Вы не можете редактировать свои сообщения
Вы не можете удалять свои сообщения
Вы не можете голосовать в опросах
Вы не можете прикреплять файлы к сообщениям
Вы можете скачивать файлы