Radical Fitness: Fight Do HOME EDITION [2009, фитнес, DVDRip] (Видеоурок)


Статистика раздачи [Обновить пиров]
Размер:  432 MB   |    Зарегистрирован:  10 месяцев 11 дней   |    Скачан:  0 раз

Полного источника не было: Никогда

 
   
 
 
 

[Цитировать]

Radical Fitness: Fight Do HOME EDITION Страна: Argentina
Тематика: фитнес
Тип раздаваемого материала: Видеоурок
Продолжительность: 00:47:16
Год выпуска: 2009
Язык: Испанский
Перевод: Отсутствует
Описание: FIGHT DO является самой революционной фитнес-программой на основе боевых искусств. Удары, блоки и прочие движения весело демонстрируются в течение очень простой, динамичной и активной тренировки, которая сжигает жиры и тонизирует весь организм. Убедитесь в том, что вы потеряете от 600 до 800 ККал за одну сессию! В программе FIGHT DO ведется бой с одним или несколькими невидимыми противниками, сочетая лучшее из боевых искусств!
- Оригинальная концепция и уникальность
- Смешение движений из бокса и боевых искусств
- Ритм и интенсивность, и, как результат, высокая потеря калорий и тонус всех мышц тела
- Высокий уровень мотивации
- Подтянутое тело
- Выносливое тело
- Гибкое тело
- Сильное тело!
Radical Fitness - Аргентинская компания, предлагающая совершенно новый спектр групповых фитнес-программ в фитнес-индустрии. Эти программы обеспечивают не только захватывающий опыт тренеру, но и расширение прав и возможностей инструктору создать свою собственную хореографию основываясь на принципах безопасности. Radical Fitness разработан всемирно известными хорографами Gabriela и Nathaniel Leivas (разработчиками хореографии для Les Mills Body Combat) и стал эволюционным прорывом в групповых фитнес-программах!
YouTube 1 YouTube 2
Workout Type: Aerobox
Level: Inter/Advan
Качество: DVDRip
Формат: AVI
Видео кодек: XviD
Аудио кодек: MP3
Видео: XVID; 640 х 480; 4:3; 1 139 Kbps; 25.000 fps
Аудио: MP3; 128 Kbps; 44.1 KHz;2 channels
MediaInfo">

Скриншоты MediaInfo


GeneralComplete name : \Radical Fitness - Fight Do Home Edition.aviFormat : AVIFormat/Info : Audio Video InterleaveFile size : 432 MiBDuration : 47mn 16sOverall bit rate : 1 277 KbpsWriting application : MEncoder SVN-r30881(20100311-gcc4.3.3)Writing library : Boilsoft AVI tool build 1/release
VideoID : 0Format : MPEG-4 VisualFormat profile : Advanced Simple@L5Format settings, BVOP : 2Format settings, QPel : NoFormat settings, GMC : No warppointsFormat settings, Matrix : Default (H.263)Codec ID : XVIDCodec ID/Hint : XviDDuration : 47mn 16sBit rate : 1 139 KbpsWidth : 640 pixelsHeight : 480 pixelsDisplay aspect ratio : 4:3Frame rate : 25.000 fpsColor space : YUVChroma subsampling : 4:2:0Bit depth : 8 bitsScan type : ProgressiveCompression mode : LossyBits/(Pixel*Frame) : 0.148Stream size : 385 MiB (89%)Writing library : XviD 1.2.1 (UTC 2008-12-04)
AudioID : 1Format : MPEG AudioFormat version : Version 1Format profile : Layer 3Mode : Joint stereoMode extension : MS StereoCodec ID : 55Codec ID/Hint : MP3Duration : 47mn 15sBit rate mode : ConstantBit rate : 128 KbpsChannel(s) : 2 channelsSampling rate : 44.1 KHzCompression mode : LossyStream size : 43.3 MiB (10%)Alignment : Split accross interleavesInterleave, duration : 40 ms (1.00 video frame)Interleave, preload duration : 500 msWriting library : LAME3.98
[teatrix.ru].t14149.torrent 
Торрент: Зарегистрирован [ 2016-01-23 01:15 ] · 98743CD4FB7AC97D5210A9DBE3516B35F0ABB4EC

Скачать .torrent

Скачать

17 KB

Статус: проверено
Скачан: 0 раз
Размер: 432 MB
terms.php



Быстрый ответ

Имя:

      
Для отправки сообщений необходимо включить JavaScript
Показать сообщения:    

Текущее время: 04-Дек 00:44

Часовой пояс: UTC + 3


Вы можете начинать темы
Вы можете отвечать на сообщения
Вы не можете редактировать свои сообщения
Вы не можете удалять свои сообщения
Вы не можете голосовать в опросах
Вы не можете прикреплять файлы к сообщениям
Вы можете скачивать файлы