Radical Fitness: Fight Do 29 [2004, фитнес, DVDRip] (Видеоурок)


Статистика раздачи [Обновить пиров]
Размер:  486 MB   |    Зарегистрирован:  10 месяцев 11 дней   |    Скачан:  0 раз

Полного источника не было: Никогда

 
   
 
 
 

[Цитировать]

Radical Fitness: Fight Do 29Страна: New Zeland
Тематика: фитнес
Тип раздаваемого материала: Видеоурок
Продолжительность: 00:52:50
Год выпуска: 2004
Язык: Английский
Перевод: Отсутствует
Описание: FIGHT DO является самой революционной фитнес-программой на основе боевых искусств. Удары, блоки и прочие движения весело демонстрируются в течение очень простой, динамичной и активной тренировки, которая сжигает жиры и тонизирует весь организм. Убедитесь в том, что вы потеряете от 600 до 800 ККал за одну сессию! В программе FIGHT DO ведется бой с одним или несколькими невидимыми противниками, сочетая лучшее из боевых искусств!
- Оригинальная концепция и уникальность
- Смешение движений из бокса и боевых искусств
- Ритм и интенсивность, и, как результат, высокая потеря калорий и тонус всех мышц тела
- Высокий уровень мотивации
- Подтянутое тело
- Выносливое тело
- Гибкое тело
- Сильное тело!
Radical Fitness - Аргентинская компания, предлагающая совершенно новый спектр групповых фитнес-программ в фитнес-индустрии. Эти программы обеспечивают не только захватывающий опыт тренеру, но и расширение прав и возможностей инструктору создать свою собственную хореографию основываясь на принципах безопасности. Radical Fitness разработан всемирно известными хорографами Gabriela и Nathaniel Leivas (разработчиками хореографии для Les Mills Body Combat) и стал эволюционным прорывом в групповых фитнес-программах!
Состав тренировки:
01 - Introduction
02 - Warm Up - Nathaniel Leivas
03 - Box - Nathaniel Leivas
04 - Muay Thai 1 - Pablo Garcia / Celeste contreras
05 - Kicks - Mauricio Freccia
06 - Fight 1 - Pablo Garcia
07 - Super Box - Nathaniel Leivas
08 - Fight 2 - Mauricio Freccia
09 - Muay Thai 2 - Ariel Keberlein
10 - Conditioning - Pablo Garcia / Celeste contreras
11 - Cool Down - Nathaniel Leivas
YouTube 1 YouTube 2
Workout Type: Aerobox
Level: Inter/Advan
Качество: DVDRip
Формат: AVI
Видео кодек: XviD
Аудио кодек: MP3
Видео: XVID; 352 х 262; 4:3; 1 147 Kbps; 29.970 fps
Аудио: MP3; 128 Kbps; 44.1 KHz;2 channels
MediaInfo">

Скриншоты MediaInfo


GeneralComplete name : Fight-Do - Radical Class Volumen 29_slack.aviFormat : AVIFormat/Info : Audio Video InterleaveFile size : 486 MiBDuration : 52mn 50sOverall bit rate : 1 287 Kbps
VideoID : 0Format : MPEG-4 VisualFormat profile : Advanced Simple@L5Format settings, BVOP : NoFormat settings, QPel : NoFormat settings, GMC : No warppointsFormat settings, Matrix : Default (MPEG)Codec ID : XVIDCodec ID/Hint : XviDDuration : 52mn 50sBit rate : 1 147 KbpsWidth : 352 pixelsHeight : 262 pixelsDisplay aspect ratio : 4:3Frame rate : 29.970 fpsColor space : YUVChroma subsampling : 4:2:0Bit depth : 8 bitsScan type : ProgressiveCompression mode : LossyBits/(Pixel*Frame) : 0.415Stream size : 433 MiB (89%)Writing library : XviD 62
AudioID : 1Format : MPEG AudioFormat version : Version 1Format profile : Layer 3Codec ID : 55Codec ID/Hint : MP3Duration : 52mn 50sBit rate mode : ConstantBit rate : 128 KbpsChannel(s) : 2 channelsSampling rate : 44.1 KHzCompression mode : LossyStream size : 48.4 MiB (10%)Alignment : Split accross interleavesInterleave, duration : 33 ms (1.00 video frame)Writing library : LAMELAME_MAJOR_VERSI
[teatrix.ru].t14155.torrent 
Торрент: Зарегистрирован [ 2016-01-23 01:15 ] · E660CEA987CACBB1BE2C46D17A7C1765FDD85497

Скачать .torrent

Скачать

19 KB

Статус: проверено
Скачан: 0 раз
Размер: 486 MB
terms.php



Быстрый ответ

Имя:

      
Для отправки сообщений необходимо включить JavaScript
Показать сообщения:    

Текущее время: 04-Дек 00:53

Часовой пояс: UTC + 3


Вы можете начинать темы
Вы можете отвечать на сообщения
Вы не можете редактировать свои сообщения
Вы не можете удалять свои сообщения
Вы не можете голосовать в опросах
Вы не можете прикреплять файлы к сообщениям
Вы можете скачивать файлы