barre3 Burner with Sadie Lincoln [2013, фитнес, DVDRip, ENG] (Видеоурок)


Статистика раздачи [Обновить пиров]
Размер:  285 MB   |    Зарегистрирован:  10 месяцев 12 дней   |    Скачан:  0 раз

Полного источника не было: Никогда

Личеров:  2  [  0 KB/s  ]   Подробная статистика пиров
 
   
 
 
 

[Цитировать]

barre3 Burner with Sadie Lincoln
Страна: USA
Тематика: фитнес
Тип раздаваемого материала: Видеоурок
Продолжительность: 00:43:42
Год выпуска: 2013
Язык: Английский
Перевод: Отсутствует
Описание: Вы будете активно работать для непрерывного сжигания калорий с этой 40-минутной тренировкой, разработанной, чтобы держать в форме все ваше тело. Время пролетит незаметно, так как Сэди сочетает инновационные изометрические и динамические упражнения, направленные на укрепление и удлинение всех мускулов вашего тела.
Требуются: легкие гантели 1-2 фунта (450-900 грамм), стул, мягкий мяч для пилатеса (или свернутое в рулон полотенце), ремень для йоги (опционально).
Media Info

скрытый текст

Format : AVI
Format/Info : Audio Video Interleave
File size : 285 MiB
Duration : 43mn 41s
Overall bit rate : 913 Kbps
Writing library : MPlayer
Video
ID : 0
Format : MPEG-4 Visual
Format profile : Advanced Simple@L5
Format settings, BVOP : 2
Format settings, QPel : No
Format settings, GMC : No warppoints
Format settings, Matrix : Default (H.263)
Codec ID : XVID
Codec ID/Hint : XviD
Duration : 43mn 41s
Bit rate : 683 Kbps
Width : 720 pixels
Height : 400 pixels
Display aspect ratio : 16:9
Frame rate : 29.970 fps
Color space : YUV
Chroma subsampling : 4:2:0
Bit depth : 8 bits
Scan type : Progressive
Compression mode : Lossy
Bits/(Pixel*Frame) : 0.079
Stream size : 213 MiB (75%)
Writing library : XviD 1.1.2 (UTC 2006-11-01)
Audio
ID : 1
Format : MPEG Audio
Format version : Version 1
Format profile : Layer 3
Mode : Joint stereo
Mode extension : MS Stereo
Codec ID : 55
Codec ID/Hint : MP3
Duration : 43mn 41s
Bit rate mode : Constant
Bit rate : 224 Kbps
Channel(s) : 2 channels
Sampling rate : 44.1 KHz
Compression mode : Lossy
Delay relative to video : 33ms
Stream size : 70.0 MiB (25%)
Alignment : Split accross interleaves
Interleave, duration : 500 ms (14.98 video frames)
Interleave, preload duration : 500 ms
Writing library : LAME3.97
Качество: DVDRip
Формат: AVI
Видео кодек: XviD
Аудио кодек: MP3
Видео: Xvid 720x400 29.97fps 682kbps 16:9
Аудио: MPEG Audio Layer 3 44100Hz stereo 224kbps 2ch

Скриншоты

[teatrix.ru].t14180.torrent 
Торрент: Зарегистрирован [ 2016-01-23 01:15 ] · B63FF21C77AC7C3D0E35EAD74C275F3F34410BAB

Скачать .torrent

Скачать

12 KB

Статус: проверено
Скачан: 0 раз
Размер: 285 MB
terms.php



Быстрый ответ

Имя:

      
Для отправки сообщений необходимо включить JavaScript
Показать сообщения:    

Текущее время: 04-Дек 19:23

Часовой пояс: UTC + 3


Вы можете начинать темы
Вы можете отвечать на сообщения
Вы не можете редактировать свои сообщения
Вы не можете удалять свои сообщения
Вы не можете голосовать в опросах
Вы не можете прикреплять файлы к сообщениям
Вы можете скачивать файлы