Tracey Mallett's Booty Barre Ballet [2013, фитнес, DVDRip, ENG] (Видеоурок)


Статистика раздачи [Обновить пиров]
Размер:  818 MB   |    Зарегистрирован:  10 месяцев 17 дней   |    Скачан:  0 раз

Полного источника не было: Никогда

Личеров:  2  [  0 KB/s  ]   Подробная статистика пиров
 
   
 
 
 

[Цитировать]

Tracey Mallett's Booty Barre Ballet
Страна: США
Тематика: фитнес
Тип раздаваемого материала: Видеоурок
Продолжительность: 01:29:38
Год выпуска: 2013
Язык: Английский
Перевод: Отсутствует
Описание: Трейси Маллет (Tracey Mallet), создательница направления тренировок в стиле фьюжн The Booty Barre, представила новую тренировку в стиле популярного сейчас балет-фитнеса.
Тренировку можно делать всю сразу (если у вас хватит сил на полтора часа ) или же разбить ее на 4 сегмента. Первые три сегмента выполняются стоя у станка (или стула). Последний сегмент, направленный на проработку ягодиц и пресса, выполняется лежа на полу.
Уровень: продолжающий

Необходимое оборудование: легкие гантели, стул, небольшой мячик.
Дополнительная информация: Поздравляю всех наших "фитнесисток" с Новым годом! Пусть в 2014 году у всех нас будут фигурки балерин, а Трейси нам в этом поможет . Кстати, самой Трейси пожелаем скорейшего выздоровления (она сейчас поправляется после операции по удалению опухоли мозга).
Качество: DVDRip
Формат: AVI
Видео кодек: XviD
Аудио кодек: AC3
Видео: Xvid 720x416 23.976fps 1077Kbps 16:9
Аудио: Dolby AC3 48000Hz stereo 192kbps 2 channels

отчет Mediainfo

General
Complete name : G:\Other\Fitness Temp\The Booty Barre Ballet.avi
Format : AVI
Format/Info : Audio Video Interleave
File size : 818 MiB
Duration : 1h 29mn
Overall bit rate : 1 276 Kbps
Writing application : VirtualDubMod 1.5.4.1 (build 2178/release)
Writing library : VirtualDubMod build 2178/release
Video
ID : 0
Format : MPEG-4 Visual
Format profile : Advanced Simple@L5
Format settings, BVOP : Yes
Format settings, QPel : No
Format settings, GMC : No warppoints
Format settings, Matrix : Custom
Codec ID : XVID
Codec ID/Hint : XviD
Duration : 1h 29mn
Bit rate : 1 077 Kbps
Width : 720 pixels
Height : 416 pixels
Display aspect ratio : 1.731
Frame rate : 23.976 fps
Color space : YUV
Chroma subsampling : 4:2:0
Bit depth : 8 bits
Scan type : Progressive
Compression mode : Lossy
Bits/(Pixel*Frame) : 0.150
Stream size : 691 MiB (84%)
Writing library : XviD 64
Audio
ID : 1
Format : AC-3
Format/Info : Audio Coding 3
Format profile : Dolby Digital
Mode extension : CM (complete main)
Format settings, Endianness : Big
Codec ID : 2000
Duration : 1h 29mn
Bit rate mode : Constant
Bit rate : 192 Kbps
Channel count : 2 channels
Channel positions : Front: L R
Sampling rate : 48.0 KHz
Bit depth : 16 bits
Compression mode : Lossy
Stream size : 123 MiB (15%)
Alignment : Split accross interleaves
Interleave, duration : 96 ms (2.30 video frames)
Interleave, preload duration : 96 ms

Скриншоты

[teatrix.ru].t14182.torrent 
Торрент: Зарегистрирован [ 2016-01-23 01:15 ] · 03BBC20E99A0FB68BF9A07456C70E8729670B721

Скачать .torrent

Скачать

16 KB

Статус: проверено
Скачан: 0 раз
Размер: 818 MB
terms.php



Быстрый ответ

Имя:

      
Для отправки сообщений необходимо включить JavaScript
Показать сообщения:    

Текущее время: 09-Дек 20:32

Часовой пояс: UTC + 3


Вы можете начинать темы
Вы можете отвечать на сообщения
Вы не можете редактировать свои сообщения
Вы не можете удалять свои сообщения
Вы не можете голосовать в опросах
Вы не можете прикреплять файлы к сообщениям
Вы можете скачивать файлы