Пилога. После 40+ [2013, Пилатес, йога, DVDRip, RUS] (Видеоурок)


Статистика раздачи [Обновить пиров]
Размер:  658 MB   |    Зарегистрирован:  10 месяцев 14 дней   |    Скачан:  0 раз

Полного источника не было: Никогда

 
   
 
 
 

[Цитировать]

Пилога. После 40+
Страна: Россия
Тематика: Пилатес, йога
Тип раздаваемого материала: Видеоурок
Продолжительность: 00:46:29
Год выпуска: 2013
Язык: Русский
Перевод: Не требуется
Описание: Красивая, подтянутая фигура, физическое и душевное здоровье, жизнь без травм и перенапряжения - это приятная реальность, которую поможет достичь Пилога - выигрышное и максимально эффективное сочетание двух дисциплин, пилатеса и йоги.Идея объединить два мощных направления принадлежит ключевой фигуре в мире фитнеса — итальянцу Донато Де Бартоломео. На его занятия по пилатесу, йоге, йогафлексу, а теперь и пилоге, летят со всех концов мира.
В фильме: ведущий комплекса Дмитрий Беляев - не исключение. Он прошел подготовку лично у основателей пилоги - доктора Дианы Пагано и Донато де Бартоломео.
Главная цель метода - сформировать мышечный каркас. 45-минутная тренировка состоит из "цепочек", которые выполняются в определенной последовательности. "Цепочка" - это упражнения, плавно перетекающие одно в другое:
- Вводное упражнение пилатеc
- Упражнение пилатес
- базовое упражнение йоги
- асана.
4-8 цепочек составляют круговую тренировку.
Качество: DVDRip
Формат: AVI
Видео кодек: XviD
Аудио кодек: AC3
Видео: 688x384 (1.79:1), 25 fps, XviD build 73 ~1776 kbps avg, 0.27 bit/pixel
Аудио: 48 kHz, AC3 Dolby Digital, 2/0 (L,R) ch, ~192 kbps

Скриншоты

MediaInfo

Общее
Полное имя : Q:\Видео\Видеоуроки\Пилога. После 40+\DVDRip\Пилога. После 40+.avi
Формат : AVI
Формат/Информация : Audio Video Interleave
Размер файла : 658 Мбайт
Продолжительность : 46 м.
Общий поток : 1978 Кбит/сек
Программа кодирования : VirtualDubMod 1.5.10.3 | www.virtualdub-fr.org || (build 2550/release)
Библиотека кодирования : VirtualDubMod build 2550/release
Видео
Идентификатор : 0
Формат : MPEG-4 Visual
Профиль формата : Advanced Simple@L5
Параметр BVOP формата : 1
Параметр QPel формата : Нет
Параметр GMC формата : Без точки перехода
Параметр матрицы формата : Выборочная
Идентификатор кодека : XVID
Идентификатор кодека/Подсказка : XviD
Продолжительность : 46 м.
Битрейт : 1776 Кбит/сек
Ширина : 688 пикселей
Высота : 384 пикселя
Соотношение сторон : 16:9
Частота кадров : 25,000 кадров/сек
Цветовое пространство : YUV
Субдискретизация насыщенности : 4:2:0
Битовая глубина : 8 бит
Тип развёртки : Прогрессивная
Метод сжатия : С потерями
Бит/(Пиксели*Кадры) : 0.269
Размер потока : 591 Мбайт (90%)
Библиотека кодирования : XviD 73
Аудио
Идентификатор : 1
Формат : AC-3
Формат/Информация : Audio Coding 3
Расширение режима : CM (complete main)
Параметр Endianness формата : Big
Идентификатор кодека : 2000
Продолжительность : 46 м.
Вид битрейта : Постоянный
Битрейт : 192 Кбит/сек
Каналы : 2 канала
Расположение каналов : Front: L R
Частота : 48,0 КГц
Битовая глубина : 16 бит
Метод сжатия : С потерями
Размер потока : 63,8 Мбайт (10%)
Выравнивание : Разделение по промежуткам
Продолжительность промежутка : 40 мс. (1,00 видеокадр)
Время предзагрузки промежутка : 500 мс.
[teatrix.ru].t14186.torrent 
Торрент: Зарегистрирован [ 2016-01-23 01:15 ] · FC55AD3B2C0C5FD8081ACB98A0C1AC0318767571

Скачать .torrent

Скачать

13 KB

Статус: проверено
Скачан: 0 раз
Размер: 658 MB
terms.php



Быстрый ответ

Имя:

      
Для отправки сообщений необходимо включить JavaScript
Показать сообщения:    

Текущее время: 07-Дек 00:46

Часовой пояс: UTC + 3


Вы можете начинать темы
Вы можете отвечать на сообщения
Вы не можете редактировать свои сообщения
Вы не можете удалять свои сообщения
Вы не можете голосовать в опросах
Вы не можете прикреплять файлы к сообщениям
Вы можете скачивать файлы