Classical Stretch The Esmonde Technique Season 9, Weight Loss and Pain Relief Series [2012, пилатес, DVD5, ENG] (Видеоурок)


Статистика раздачи [Обновить пиров]
Размер:  24.89 GB   |    Зарегистрирован:  10 месяцев 15 дней   |    Скачан:  0 раз

Полного источника не было: Никогда

 
   
 
 
 

[Цитировать]

CLASSICAL STRETCH The Esmonde Technique Season 9, Weight Loss and Pain Relief Series Episodes1-30
Страна: USA
Тематика: пилатес
Тип раздаваемого материала: Видеоурок
Продолжительность: 30*00:24:00
Год выпуска: 2012
Язык: Английский
Перевод: Отсутствует
Язык субтитров: нет
Описание: We have discovered that chronic pain and injuries often prevent people from being able to achieve weight loss and body toning. In Season 9 we try to give you a combination of workouts that will relieve pain and tone and strengthen your body.
The weight loss workouts are fun and challenging aimed at melting the fat away while strengthening and toning the full body. Don’t forget to include a healthy diet in any weight loss program. The pain relief workouts are a combination of deep stretch and targeted pain relief exercises. In addition these popular workouts are designed to relieve overall stress by releasing tension in the muscles and increasing full body circulation.
Мы обнаружили, что хронические боли и травмы часто мешают людям похудеть и подтянуть тело. В 9 м сезоне мы стараемся дать вам сочетание тренировок, которые снимут боль и позволят укрепить свое тело.
Стимулирующие и увлекательные тренировки для потери веса, направленные на избавление от лишнего веса, укрепление приведение в тонус всего тела. не забывайте контролировать свое питание в любой программе для потери веса. Тренировки избавляющие от боли сочетают в себе глубокое растяжение и целевые упражнения против болей в теле. Вдобавок эти популярные тренировки, направленны на расслабление после стресса путем снятия напряженности в мышцах и ускорения кровообращения в теле.
Доп. информация:
901 Weight Loss: Slenderizing Your Core
902 Pain Relief: Hip & Foot Pain Workout
903 Weight Loss: Hips & Legs
904 Weight Loss: Slenderizing Legs & Hips
905 Pain Relief: Feet & Calf Healing
906 Weight Loss: Focusing on Leg Work
907 Weight Loss: Ab & Waist Strengthening (All Standing)
908 Pain Relief: Quad & Hips
909 Weight Loss: Posture Workout
910 Pain Relief: For the Back & Knees
911 Weight Loss: Slenderize Your Waist
912 Weight Loss: Arm Slenderizing (All Standing)
913 Weight Loss: Strengthen Spine & Improve Posture
914 Pain Relief: Calf & Knee Strengthening
915 Weight Loss: For Legs & Arms
916 Pain Relief: Focusing on Hips
917 Weight Loss: Increase Your Range of Motion
918 Weight Loss: Hip Strengthening
919 Weight Loss: Full Body Toning
920 Weight Loss: Hip & Back Strengthening (All Standing)
921 Pain Relief: Spine Strength & Flexibility (All Standing)
922 Weight Loss: Slenderize the Saddle Bags
923 Weight Loss: Leg Slenderizers
924 Weight Loss: Full Body Workout (All Standing)
925 Weight Loss: Strengthen Your Hamstrings
926 Pain Relief: Pain Prevention
927 Weight Loss: Full Body Strengthening (All Standing)
928 Pain Relief: Hip Stretches
929 Weight Loss: Hips, Knees & Foot Workout
930 Pain Relief: Frozen Shoulder (All Standing)
Качество: DVD5
Формат: DVDVideo
Видео: NTSC, MPEG-2 Video, 720 x 480, 16:9, 5000 Kbps, 29.970 fps, 0.483 b/px
Аудио: AC3, 96 Kbps, CBR, 48.0 KHz, 2 ch

Скриншоты


Mediainfo

Format : MPEG-PS
File size : 1 024 MiB
Duration : 27mn 30s
Overall bit rate : 5 202 Kbps
Video
ID : 224 (0xE0)
Format : MPEG Video
Format version : Version 2
Format profile : Main@Main
Format settings, BVOP : Yes
Format settings, Matrix : Custom
Format settings, GOP : M=3, N=15
Duration : 27mn 30s
Bit rate : 5 000 Kbps
Width : 720 pixels
Height : 480 pixels
Display aspect ratio : 16:9
Frame rate : 29.970 fps
Standard : NTSC
Color space : YUV
Chroma subsampling : 4:2:0
Bit depth : 8 bits
Scan type : Interlaced
Scan order : Bottom Field First
Compression mode : Lossy
Bits/(Pixel*Frame) : 0.483
Time code of first frame : 01:27:30;21
Time code source : Group of pictures header
Stream size : 984 MiB (96%)
Color primaries : BT.601 NTSC
Transfer characteristics : BT.601
Matrix coefficients : BT.601
Audio
ID : 189 (0xBD)-128 (0x80)
Format : AC-3
Format/Info : Audio Coding 3
Mode extension : CM (complete main)
Format settings, Endianness : Big
Muxing mode : DVD-Video
Duration : 27mn 30s
Bit rate mode : Constant
Bit rate : 96.0 Kbps
Channel(s) : 2 channels
Channel positions : Front: L R
Sampling rate : 48.0 KHz
Bit depth : 16 bits
Compression mode : Lossy
Delay relative to video : -317ms
Stream size : 18.9 MiB (2%)
Menu
[teatrix.ru].t14188.torrent 
Торрент: Зарегистрирован [ 2016-01-23 01:15 ] · 38BCB079F8AFEAE1DDA0779B6AAC9B297FF5398E

Скачать .torrent

Скачать

66 KB

Статус: проверено
Скачан: 0 раз
Размер: 24.89 GB
terms.php



Быстрый ответ

Имя:

      
Для отправки сообщений необходимо включить JavaScript
Показать сообщения:    

Текущее время: 07-Дек 19:22

Часовой пояс: UTC + 3


Вы можете начинать темы
Вы можете отвечать на сообщения
Вы не можете редактировать свои сообщения
Вы не можете удалять свои сообщения
Вы не можете голосовать в опросах
Вы не можете прикреплять файлы к сообщениям
Вы можете скачивать файлы