Classical Stretch The Esmonde Technique Season 8, Age Defying Series [2011, пилатес, DVD5, ENG] (Видеоурок)


Статистика раздачи [Обновить пиров]
Размер:  25.82 GB   |    Зарегистрирован:  10 месяцев 18 дней   |    Скачан:  0 раз

Полного источника не было: Никогда

 
   
 
 
 

[Цитировать]

Classical Stretch The Esmonde Technique Season 8, Age Defying Series Episodes 1-30
Страна: США
Тематика: пилатес
Тип раздаваемого материала: Видеоурок
Продолжительность: 30*00:24:00мин
Год выпуска: 2011
Язык: Английский
Перевод: Отсутствует
Язык субтитров: Нет
Описание: Stay young, don’t let yourself age prematurely!
Getting older is natural and inevitable. What is not inevitable is our body falling apart from preventable age related conditions such as: poor posture, weight gain, loss of energy, chronic aches and pains, hip and knee replacements, osteoarthritis and osteoporosis. These common age related conditions can be prevented, reversed or slОставайтесь молодыми, скажите "нет" преждевременной старости!
Мы все становимся старше - это естественно и неизбежно. Но вполне возможно избежать связанных с возрастом проблем: плохой осанки, полноты, пониженной энергичности, хронических болей, замены суставов, артрита и остеопороза. Эти распространенные возрастные состояния можно предотвратить, замедлить или обратить назад с помощью правильной физической активности и питания.owed down with correct exercise and diet.
Доп. информация:
801 Stretch All 600 Muscles
802 Increase Your Energy
803 Stress Relieving Workout
804 Firm & Strengthen Your Butt
805 Balance & Strength
806 Lose A Pant Size Half Moon
807 Elongating Your Muscles
808 Slenderize the Waist & Flatten Abs
809 Improve Your Posture & Increase Your Energy
810 Strengthen Hips & Core
811 Unlock The Spine & Improve Posture
812 Improve Your Balance
813 Strengthen Feet & Fingers
814 Unlock Your Hips
815 Increase Your Energy
816 Tone Your Entire Body
817 Strengthen & Shape Your Legs
818 Burn Calories & Lose Weight
819 Tone The Abs & Strengthen Legs
820 Full Body Posture Workout
821 Strength and Flexibility to Your Core
822 Full Barre Workout to Loosen Hips
823 Stretch & Strengthen The Lower Body
824 Spine & Abs Rose Hall Great House
825 Feet & Ankles
826 Weight Loss & Toning
827 Stretch & Strengthen Your Hips
828 Strengthen Your Bones
829 Improve Posture & Flatten Abs
830 Strength & Flexibility of Hips
Качество: DVD5
Аудио кодек: AC3
Формат: DVDVideo
Видео: NTSC, MPEG-2 Video, 720 x 480, 16:9, 5000 Kbps, 29.970 fps, 0.483 b/px
Аудио: AC3, 96 Kbps, CBR, 48.0 KHz, 2 ch

Mediainfo

Format : MPEG-PS
File size : 1 024 MiB
Duration : 27mn 30s
Overall bit rate : 5 203 Kbps
Video
ID : 224 (0xE0)
Format : MPEG Video
Format version : Version 2
Format profile : Main@Main
Format settings, BVOP : Yes
Format settings, Matrix : Custom
Format settings, GOP : M=3, N=15
Duration : 27mn 30s
Bit rate : 5 000 Kbps
Width : 720 pixels
Height : 480 pixels
Display aspect ratio : 16:9
Frame rate : 29.970 fps
Standard : NTSC
Color space : YUV
Chroma subsampling : 4:2:0
Bit depth : 8 bits
Scan type : Interlaced
Scan order : Bottom Field First
Compression mode : Lossy
Bits/(Pixel*Frame) : 0.483
Time code of first frame : 01:00:00;00
Time code source : Group of pictures header
Stream size : 985 MiB (96%)
Color primaries : BT.601 NTSC
Transfer characteristics : BT.601
Matrix coefficients : BT.601
Audio
ID : 189 (0xBD)-128 (0x80)
Format : AC-3
Format/Info : Audio Coding 3
Mode extension : CM (complete main)
Format settings, Endianness : Big
Muxing mode : DVD-Video
Duration : 27mn 30s
Bit rate mode : Constant
Bit rate : 96.0 Kbps
Channel(s) : 2 channels
Channel positions : Front: L R
Sampling rate : 48.0 KHz
Bit depth : 16 bits
Compression mode : Lossy
Delay relative to video : -67ms
Stream size : 18.9 MiB (2%)
Menu

Скриншоты


[teatrix.ru].t14189.torrent 
Торрент: Зарегистрирован [ 2016-01-23 01:15 ] · 55274632FC2F8ABD8DDAE9990405D2A920D9C5F8

Скачать .torrent

Скачать

68 KB

Статус: проверено
Скачан: 0 раз
Размер: 25.82 GB
terms.php



Быстрый ответ

Имя:

      
Для отправки сообщений необходимо включить JavaScript
Показать сообщения:    

Текущее время: 10-Дек 06:06

Часовой пояс: UTC + 3


Вы можете начинать темы
Вы можете отвечать на сообщения
Вы не можете редактировать свои сообщения
Вы не можете удалять свои сообщения
Вы не можете голосовать в опросах
Вы не можете прикреплять файлы к сообщениям
Вы можете скачивать файлы