Essentrics Workout: Arms, Abs & Waist Toner / Legs, Butt & Thigh Thinner [2008, фитнес, фьюжен, балет, ENG] (Видеоурок)


Статистика раздачи [Обновить пиров]
Размер:  743 MB   |    Зарегистрирован:  10 месяцев 16 дней   |    Скачан:  2 раза

Полного источника не было: 1 месяц 5 дней

 
   
 
 
 

[Цитировать]

Essentrics Workout
Arms, Abs & Waist Toner / Legs, Butt & Thigh Thinner

Страна: США
Тематика: фитнес -балет
Тип раздаваемого материала: Видеоурок
Продолжительность: 00:59:26
Год выпуска: 2008
Язык: Английский
Перевод: Отсутствует
Описание: Мощная Essentrics техника укрепления мускулов в положении стоя, быстро трансформирует тело в подтянутые, стройные формы. Уникальные плавные движения программы Essentrics одновременно помогают худеть и придают тон брюшному прессу, талии, бедрам и рукам.
The powerful Essentrics™ technique of strengthening the muscles in a lengthened position quickly transforms the body into a long, lean and toned shape. The unique flowing movements of the Essentrics™ program have been proven to simultaneously slenderize and tone the abs, waist, thighs, arms and back.- -Качество: DVDRip
Формат: AVI
Видео: 688x384 (1.79:1), 25 fps, XviD build 65 ~1546 kbps avg, 0.23 bit/pixel
Аудио: 48 kHz, MPEG Layer 3, 2 ch, ~128.00 kbps
Отчет MI">

Скриншоты Отчет MI


GeneralComplete name : Essentrics Workout (2008)\Essentrics Workout_01 Arms, Abs,& Waist Toner.aviFormat : AVIFormat/Info : Audio Video InterleaveFile size : 363 MiBDuration : 27mn 54sOverall bit rate : 1 821 Kbps
VideoID : 0Format : MPEG-4 VisualFormat profile : Advanced Simple@L5Format settings, BVOP : 1Format settings, QPel : NoFormat settings, GMC : No warppointsFormat settings, Matrix : CustomCodec ID : XVIDCodec ID/Hint : XviDDuration : 27mn 54sBit rate : 1 683 KbpsWidth : 688 pixelsHeight : 384 pixelsDisplay aspect ratio : 16:9Frame rate : 25.000 fpsColor space : YUVChroma subsampling : 4:2:0Bit depth : 8 bitsScan type : ProgressiveCompression mode : LossyBits/(Pixel*Frame) : 0.255Stream size : 336 MiB (92%)Writing library : XviD 65
AudioID : 1Format : MPEG AudioFormat version : Version 1Format profile : Layer 3Codec ID : 55Codec ID/Hint : MP3Duration : 27mn 52sBit rate mode : ConstantBit rate : 128 KbpsChannel(s) : 2 channelsSampling rate : 48.0 KHzCompression mode : LossyStream size : 25.5 MiB (7%)Alignment : Aligned on interleavesInterleave, duration : 40 ms (1.00 video frame)Interleave, preload duration : 504 msWriting library : LAME3.99.5ЄЄЄЄЄЄЄЄЄЄ
[teatrix.ru].t14194.torrent 
Торрент: Зарегистрирован [ 2016-01-23 01:15 ] · 23FE18E5840A9DA683E68E922D5137C582B35A77

Скачать .torrent

Скачать

15 KB

Статус: проверено
Скачан: 2 раз
Размер: 743 MB
terms.php



Быстрый ответ

Имя:

      
Для отправки сообщений необходимо включить JavaScript
Показать сообщения:    

Текущее время: 08-Дек 10:55

Часовой пояс: UTC + 3


Вы можете начинать темы
Вы можете отвечать на сообщения
Вы не можете редактировать свои сообщения
Вы не можете удалять свои сообщения
Вы не можете голосовать в опросах
Вы не можете прикреплять файлы к сообщениям
Вы можете скачивать файлы